<?xml version="1.0" standalone="no"?>
<!DOCTYPE svg PUBLIC "-//W3C//DTD SVG 1.1//EN" "http://www.w3.org/Graphics/SVG/1.1/DTD/svg11.dtd" >
<svg>
<metadata>
Created by FontForge 20090914 at Tue Jul 12 11:33:04 2016
 By www-data
&#194;&#169; 2009 Microsoft Corporation. All Rights Reserved.
</metadata>
<defs>
<font id="Ebrima" horiz-adv-x="0" >
  <font-face 
    font-family="Ebrima"
    font-weight="400"
    font-stretch="normal"
    units-per-em="2048"
    panose-1="2 0 0 0 0 0 0 0 0 0"
    ascent="1638"
    descent="-410"
    x-height="1024"
    cap-height="1434"
    bbox="-738 -1000 3409 2181"
    underline-thickness="119"
    underline-position="-119"
    unicode-range="U+000D-U+104A9"
  />
<missing-glyph horiz-adv-x="1322" 
d="M166 0v1398h990v-1398h-990zM314 148h694v1102h-694v-1102z" />
    <glyph glyph-name=".notdef" horiz-adv-x="1322" 
d="M166 0v1398h990v-1398h-990zM314 148h694v1102h-694v-1102z" />
    <glyph glyph-name=".null" 
 />
    <glyph glyph-name="nonmarkingreturn" unicode="&#xd;" 
 />
    <glyph glyph-name="space" unicode="&#xa0;" horiz-adv-x="561" 
 />
    <glyph glyph-name="space" unicode=" " horiz-adv-x="561" 
 />
    <glyph glyph-name="exclam" unicode="!" horiz-adv-x="582" 
d="M375 1434l-19 -1030h-135l-18 1030h172zM291 -18c-30.667 0 -56.834 10.667 -78.501 32s-32.5 47.333 -32.5 78s10.833 56.834 32.5 78.501s47.834 32.5 78.501 32.5c30 0 56 -10.833 78 -32.5s33 -47.834 33 -78.501s-11 -56.667 -33 -78s-48 -32 -78 -32z" />
    <glyph glyph-name="quotedbl" unicode="&#x22;" horiz-adv-x="803" 
d="M323 1434l-30 -447h-115l-30 447h175zM655 1434l-30 -447h-115l-30 447h175z" />
    <glyph glyph-name="numbersign" unicode="#" horiz-adv-x="1210" 
d="M1166 1032l-23 -106h-261l-63 -300h281l-27 -106h-275l-88 -397h-126l86 397h-250l-84 -397h-125l84 397h-262l20 106h265l61 300h-277l21 106h277l84 402h126l-84 -402h252l86 402h123l-84 -402h263zM758 926h-252l-66 -300h254z" />
    <glyph glyph-name="dollar" unicode="$" horiz-adv-x="1104" 
d="M616 8v-217h-104v209c-142 0 -257.333 28.667 -346 86v174c38.667 -34 91.5 -62.5 158.5 -85.5s129.5 -34.5 187.5 -34.5v512c-146.667 70.667 -241.667 135.834 -285 195.501s-65 130.167 -65 211.5c0 96.667 33 180.167 99 250.5s149.667 112.5 251 126.5v180h104v-176
c130.667 -4 221 -22.667 271 -56v-170c-68 53.333 -158.333 82 -271 86v-528c138.667 -66 233.5 -129.833 284.5 -191.5s76.5 -131.834 76.5 -210.501c0 -94.667 -31.833 -174.167 -95.5 -238.5s-152.167 -105.5 -265.5 -123.5zM512 828v465.999
c-56 -11.333 -100.333 -36.166 -133 -74.499s-49 -84.833 -49 -139.5c0 -57.333 13.333 -104.333 40 -141s74 -73.667 142 -111zM616 599.999v-452c128.667 28 193 97.333 193 208c0 92 -64.333 173.333 -193 244z" />
    <glyph glyph-name="percent" unicode="%" horiz-adv-x="1676" 
d="M404 715c-98.667 0 -177.333 32.5 -236 97.5s-88 151.833 -88 260.5c0 118.667 31 212.167 93 280.5s145.667 102.5 251 102.5c102 0 181.167 -31.667 237.5 -95s84.5 -152.333 84.5 -267s-31.5 -206.5 -94.5 -275.5s-145.5 -103.5 -247.5 -103.5zM418.001 1346
c-63.333 0 -113.333 -23.501 -150 -70.501s-55 -111.5 -55 -193.5c0 -80.667 18 -143.5 54 -188.5s85 -67.5 147 -67.5c62.667 0 111.667 23.333 147 70s53 111.334 53 194.001c0 80.667 -17.5 143.5 -52.5 188.5s-82.833 67.5 -143.5 67.5zM1364 1434l-920 -1444h-143
l919 1444h144zM1258 -22.001c-98.667 0 -177.333 32.667 -236 98s-88 152 -88 260c0 118.667 31.333 212.5 94 281.5s146 103.5 250 103.5c101.333 0 180.333 -32 237 -96s85 -153.667 85 -269c0 -114 -31.5 -205.5 -94.5 -274.5s-145.5 -103.5 -247.5 -103.5zM1272 607.999
c-64 0 -114.167 -23.332 -150.5 -69.999s-54.5 -111.334 -54.5 -194.001c0 -79.333 18 -141.5 54 -186.5s85 -67.5 147 -67.5c62.667 0 111.667 23.5 147 70.5s53 111.5 53 193.5c0 81.333 -17.5 144 -52.5 188s-82.833 66 -143.5 66z" />
    <glyph glyph-name="ampersand" unicode="&#x26;" horiz-adv-x="1639" 
d="M1445 -23c-38 0 -71.498 5.16797 -100.498 15.501s-55.833 25 -80.5 44s-48.5 42.167 -71.5 69.5s-47.167 58.333 -72.5 93c-26.667 -28.667 -57.5 -56.334 -92.5 -83.001s-73.833 -50.334 -116.5 -71.001s-89.334 -37.167 -140.001 -49.5s-105.667 -18.5 -165 -18.5
c-72 0 -138 9 -198 27s-111.333 44.5 -154 79.5s-75.834 78.167 -99.501 129.5s-35.5 110.333 -35.5 177c0 102 29 189.167 87 261.5s140 131.5 246 177.5c-20 14.667 -40 31.834 -60 51.501s-37.833 42 -53.5 67s-28.334 52.667 -38.001 83s-14.5 63.5 -14.5 99.5
c0 52.667 9.5 99.334 28.5 140.001s45.167 75 78.5 103s72.666 49.167 117.999 63.5s94.333 21.5 147 21.5c52 0 99.5 -7.16699 142.5 -21.5s80 -34.833 111 -61.5s55.167 -58.667 72.5 -96s26 -79 26 -125c0 -80 -22.833 -146.5 -68.5 -199.5
s-114.167 -98.167 -205.5 -135.5c46 -18 87.667 -40 125 -66s71.833 -55 103.5 -87s61.167 -66.333 88.5 -103l81 -114c54 75.333 94.667 158.333 122 249s41 185.667 41 285c0 25.333 -1.5 49.166 -4.5 71.499s-7.16699 44.5 -12.5 66.5h159
c5.33301 -22 8.5 -42.833 9.5 -62.5l3.5 -70.5c0 -60.667 -6.33301 -121.667 -19 -183s-29.667 -120.833 -51 -178.5s-46.166 -112.5 -74.499 -164.5s-58.166 -99.667 -89.499 -143c23.333 -32 44.666 -59.833 63.999 -83.5s38.833 -43.5 58.5 -59.5s40 -27.833 61 -35.5
s44.833 -11.5 71.5 -11.5c20 0 40.333 2.66699 61 8s42 12 64 20v-152c-24 -9.33301 -49.167 -16.333 -75.5 -21s-52.166 -7 -77.499 -7zM606.002 119.001c50.667 0 97.333 5.50195 140 16.502s82 25.667 118 44s68.667 39.666 98 63.999s56 49.833 80 76.5
c-40.667 63.333 -78.167 117.5 -112.5 162.5s-69 83.833 -104 116.5s-72.333 60.667 -112 84s-85.5 45 -137.5 65c-42 -16.667 -80.667 -35.167 -116 -55.5s-65.833 -44.333 -91.5 -72s-45.834 -59.834 -60.501 -96.501s-22 -79.667 -22 -129
c0 -45.333 8.33301 -85.333 25 -120s39.5 -63.5 68.5 -86.5s62.833 -40.333 101.5 -52s80.334 -17.5 125.001 -17.5zM856.001 1140c0 33.333 -6.16699 61.668 -18.5 85.001s-28 42.666 -47 57.999s-40.167 26.5 -63.5 33.5s-46.333 10.5 -69 10.5
c-65.333 0 -117.5 -17.667 -156.5 -53s-58.833 -83.333 -59.5 -144c0 -27.333 4.16699 -53 12.5 -77s20 -46.333 35 -67s32.5 -39 52.5 -55s41.333 -29.667 64 -41c84 29.333 146.667 63.5 188 102.5s62 88.167 62 147.5z" />
    <glyph glyph-name="quotesingle" unicode="'" horiz-adv-x="471" 
d="M323 1434l-30 -447h-115l-30 447h175z" />
    <glyph glyph-name="parenleft" unicode="(" horiz-adv-x="618" 
d="M450 -326c-206.667 235.333 -310 526.334 -310 873.001c0 348 103.333 643.667 310 887h148c-209.333 -253.333 -314 -548.333 -314 -885c0 -334.667 104 -626.334 312 -875.001h-146z" />
    <glyph glyph-name="parenright" unicode=")" horiz-adv-x="618" 
d="M24 -326c208 248.667 312 540.333 312 875c0 336.667 -104.667 631.667 -314 885h148c208 -244 312 -539.667 312 -887c0 -346 -104 -637 -312 -873h-146z" />
    <glyph glyph-name="asterisk" unicode="*" horiz-adv-x="854" 
d="M780 1104l-274 -56l190 -243l-110 -76l-156 265l-158 -265l-110 76l190 243l-276 56l45 125l262 -99l-23 304h138l-23 -304l263 99z" />
    <glyph glyph-name="plus" unicode="+" horiz-adv-x="1401" 
d="M1172 530h-404v-403h-133v403h-403v134h403v403h133v-403h404v-134z" />
    <glyph glyph-name="comma" unicode="," horiz-adv-x="444" 
d="M316 228l-160 -492h-117l117 492h160z" />
    <glyph glyph-name="hyphen" unicode="&#xad;" horiz-adv-x="819" 
d="M690 506h-546v129h546v-129z" />
    <glyph glyph-name="hyphen" unicode="-" horiz-adv-x="819" 
d="M690 506h-546v129h546v-129z" />
    <glyph glyph-name="period" unicode="." horiz-adv-x="444" 
d="M223 -22c-30.667 0 -56.834 11 -78.501 33s-32.5 48.333 -32.5 79s10.833 57.167 32.5 79.5s47.834 33.5 78.501 33.5c31.333 0 58 -11.167 80 -33.5s33 -48.833 33 -79.5s-11 -57 -33 -79s-48.667 -33 -80 -33z" />
    <glyph glyph-name="slash" unicode="/" horiz-adv-x="798" 
d="M813 1434l-688 -1672h-153l686 1672h155z" />
    <glyph glyph-name="zero" unicode="0" horiz-adv-x="1104" 
d="M538 -24c-142 0 -252.833 61.001 -332.5 183.001s-119.5 298.333 -119.5 529c0 253.333 41.5 445 124.5 575s202.833 195 359.5 195c300 0 450 -245 450 -735c0 -242.667 -42.333 -427.834 -127 -555.501s-203 -191.5 -355 -191.5zM561 1319
c-204.667 0 -307 -207.667 -307 -623c0 -388 100.333 -582 301 -582c198 0 297 197.333 297 592c0 408.667 -97 613 -291 613z" />
    <glyph glyph-name="one" unicode="1" horiz-adv-x="1104" 
d="M987 0h-811v144h324v1114l-332 -99v156l496 151v-1322h323v-144z" />
    <glyph glyph-name="two" unicode="2" horiz-adv-x="1104" 
d="M960 0h-864.002v146l418 419c106.667 106.667 182.834 195.5 228.501 266.5s68.5 146.833 68.5 227.5c0 82.667 -23.667 146.667 -71 192s-114.666 68 -201.999 68c-128 0 -250.667 -54.667 -368 -164v172c112 87.333 242.333 131 391 131
c128 0 228.667 -34.667 302 -104s110 -162.333 110 -279c0 -92 -25.333 -181.833 -76 -269.5s-141.667 -196.5 -273 -326.5l-331 -327v-4h667v-148z" />
    <glyph glyph-name="three" unicode="3" horiz-adv-x="1104" 
d="M131 53l-0.000976562 176.999c98 -77.333 208.667 -116 332 -116c100 0 179.833 25 239.5 75s89.5 117.333 89.5 202c0 187.333 -133 281 -399 281h-119v139h113c236.667 0 355 88 355 264c0 162.667 -90.333 244 -271 244c-100.667 0 -195.667 -34.333 -285 -103v160
c92 54.667 200.667 82 326 82c120.667 0 217.167 -32 289.5 -96s108.5 -146 108.5 -246c0 -188.667 -96 -310 -288 -364v-4c103.333 -10 185.5 -46.167 246.5 -108.5s91.5 -140.166 91.5 -233.499c0 -128.667 -46.167 -232.5 -138.5 -311.5s-214.166 -118.5 -365.499 -118.5
c-136 0 -244.333 25.667 -325 77z" />
    <glyph glyph-name="four" unicode="4" horiz-adv-x="1104" 
d="M1034 381h-184v-381h-162v381h-674v107l638 946h198v-920h184v-133zM688 514l-0.000976562 620c0 44 1.33301 93.333 4 148h-4c-9.33301 -24 -27.666 -60.667 -54.999 -110l-441 -658h496z" />
    <glyph glyph-name="five" unicode="5" horiz-adv-x="1104" 
d="M164 35l-0.000976562 174.001c98 -63.333 197.667 -95 299 -95s183 28.667 245 86s93 133.333 93 228c0 94 -31.667 167.333 -95 220s-154 79 -272 79c-40 0 -115 -4 -225 -12v719h694v-148h-539v-420c44 2.66699 84.667 4 122 4c153.333 0 272 -38.5 356 -115.5
s126 -182.5 126 -316.5c0 -138.667 -45.167 -250.334 -135.5 -335.001s-214.166 -127 -371.499 -127c-132.667 0 -231.667 19.667 -297 59z" />
    <glyph glyph-name="six" unicode="6" horiz-adv-x="1104" 
d="M934 1417v-155c-74 38 -152 57 -234 57c-127.333 0 -229.166 -56.667 -305.499 -170s-114.5 -265 -114.5 -455h4c66.667 135.333 176 203 328 203c125.333 0 225 -40.167 299 -120.5s111 -187.833 111 -322.5c0 -140.667 -42.333 -255.5 -127 -344.5
s-192.334 -133.5 -323.001 -133.5c-144 0 -257 57.333 -339 172s-123 275.667 -123 483c0 251.333 53.667 452 161 602s249 225 425 225c100 0 179.333 -13.667 238 -41zM576 758c-84.667 0 -153.334 -28.666 -206.001 -85.999s-79 -125 -79 -203
c0 -98 26.167 -181.667 78.5 -251s121.833 -104 208.5 -104c82.667 0 149.334 30.167 200.001 90.5s76 136.833 76 229.5c0 101.333 -24.333 180.666 -73 237.999s-117 86 -205 86z" />
    <glyph glyph-name="seven" unicode="7" horiz-adv-x="1104" 
d="M1010 1382l-568 -1382h-170l537 1286h-723v148h924v-52z" />
    <glyph glyph-name="eight" unicode="8" horiz-adv-x="1104" 
d="M410 752v4.00098c-172 80 -258 196 -258 348c0 103.333 39.333 188.166 118 254.499s180 99.5 304 99.5c112 0 204 -31 276 -93s108 -141.667 108 -239c0 -158.667 -88.667 -282 -266 -370v-4c209.333 -74.667 314 -204 314 -388c0 -118.667 -42.667 -213 -128 -283
s-204 -105 -356 -105c-122.667 0 -223.667 34.667 -303 104s-119 159.333 -119 270c0 184 103.333 318 310 402zM790 1106c0 66 -20.668 118.001 -62.001 156.001s-97.666 57 -168.999 57c-66.667 0 -123.167 -19.833 -169.5 -59.5s-69.5 -90.167 -69.5 -151.5
c0 -124.667 77.667 -218.667 233 -282c158 65.333 237 158.666 237 279.999zM541.999 674.002c-182.667 -72.667 -274 -178 -274 -316c0 -71.333 26.5 -129.833 79.5 -175.5s122.833 -68.5 209.5 -68.5c82.667 0 150.167 22.5 202.5 67.5s78.5 101.833 78.5 170.5
c0 144 -98.667 251.333 -296 322z" />
    <glyph glyph-name="nine" unicode="9" horiz-adv-x="1104" 
d="M172 24l0.000976562 158c80 -45.333 164.667 -68 254 -68c130 0 231.167 52.333 303.5 157s108.5 253.334 108.5 446.001c-1.33301 -0.666992 -2.66602 -0.666992 -3.99902 0c-61.333 -123.333 -168 -185 -320 -185c-122.667 0 -223.334 41.667 -302.001 125
s-118 190.666 -118 321.999c0 140 43.167 254.833 129.5 344.5s196.833 134.5 331.5 134.5c141.333 0 251.5 -55.833 330.5 -167.5s118.5 -274.167 118.5 -487.5c0 -264.667 -51.333 -468.667 -154 -612s-245.334 -215 -428.001 -215c-96 0 -179.333 16 -250 48z
M540.001 1319c-79.333 0 -145.501 -29.833 -198.501 -89.5s-79.5 -135.5 -79.5 -227.5c0 -100.667 26 -179.834 78 -237.501s122.333 -86.5 211 -86.5c77.333 0 142.833 26.333 196.5 79s80.5 117 80.5 193c0 108.667 -26.667 197.334 -80 266.001
s-122.666 103 -207.999 103z" />
    <glyph glyph-name="colon" unicode=":" horiz-adv-x="444" 
d="M223 824c-30.667 0 -56.834 11 -78.501 33s-32.5 48.333 -32.5 79s10.833 56.667 32.5 78s47.834 32 78.501 32c31.333 0 58 -10.667 80 -32s33 -47.333 33 -78s-11 -57 -33 -79s-48.667 -33 -80 -33zM223 -22c-30.667 0 -56.834 11 -78.501 33s-32.5 48.333 -32.5 79
s10.833 57.167 32.5 79.5s47.834 33.5 78.501 33.5c31.333 0 58 -11.167 80 -33.5s33 -48.833 33 -79.5s-11 -57 -33 -79s-48.667 -33 -80 -33z" />
    <glyph glyph-name="semicolon" unicode=";" horiz-adv-x="444" 
d="M226 824c-31.333 0 -57.833 11 -79.5 33s-32.5 48.333 -32.5 79s10.833 56.667 32.5 78s48.167 32 79.5 32c30.667 0 57 -10.667 79 -32s33 -47.333 33 -78s-11 -57 -33 -79s-48.333 -33 -79 -33zM316 228l-160 -492h-117l117 492h160z" />
    <glyph glyph-name="less" unicode="&#x3c;" horiz-adv-x="1401" 
d="M1132 127l-860 432v59l860 482v-150l-642 -356v-4l642 -314v-149z" />
    <glyph glyph-name="equal" unicode="=" horiz-adv-x="1401" 
d="M1172 744h-940v132h940v-132zM1172 318h-940v132h940v-132z" />
    <glyph glyph-name="greater" unicode="&#x3e;" horiz-adv-x="1401" 
d="M1132 559l-860 -432v149l644 312v6l-644 356v150l860 -482v-59z" />
    <glyph glyph-name="question" unicode="?" horiz-adv-x="918" 
d="M335 398c-6 17.333 -11.3359 39.8301 -16.0029 67.4971s-7 55.167 -7 82.5c0 42.667 8.5 81.167 25.5 115.5s38.167 66.5 63.5 96.5s53 58.833 83 86.5s57.667 55.667 83 84s46.5 58 63.5 89s25.5 65.167 25.5 102.5c0 32 -6.16699 60.333 -18.5 85
s-29.166 45.334 -50.499 62.001s-46 29.167 -74 37.5s-57.667 12.5 -89 12.5c-112.667 0 -210.334 -44.333 -293.001 -133v176c102 64 207.667 96 317 96c50.667 0 98.334 -6.66699 143.001 -20s83.834 -33.166 117.501 -59.499s60.167 -59.166 79.5 -98.499s29 -85 29 -137
c0 -49.333 -8.66699 -93.333 -26 -132s-39.166 -74.167 -65.499 -106.5s-54.833 -62.5 -85.5 -90.5s-59.167 -55.833 -85.5 -83.5s-48.166 -56.5 -65.499 -86.5s-26 -63 -26 -99c0 -30.667 3.66699 -58.5 11 -83.5s14.666 -46.167 21.999 -63.5h-161zM424.997 -18.0029
c-29.333 0 -55.333 10.667 -78 32c-22 21.333 -33 47.333 -33 78c0 31.333 11 57.333 33 78c22 22 48 33 78 33s56 -11 78 -33c22 -20.667 33 -46.667 33 -78c0 -30.667 -11 -56.667 -33 -78c-22.667 -21.333 -48.667 -32 -78 -32z" />
    <glyph glyph-name="at" unicode="@" horiz-adv-x="1956" 
d="M1164 420l-5.00098 0.00195312c-48.667 -158.667 -144.334 -238 -287.001 -238c-91.333 0 -164.833 33.667 -220.5 101s-83.5 158 -83.5 272c0 150.667 38.5 275.834 115.5 375.501s178.167 149.5 303.5 149.5c48 0 90.833 -12.333 128.5 -37s61.834 -55.667 72.501 -93
h4c1.33301 18.667 4.66602 57 9.99902 115h125c-31.333 -367.333 -47 -554.333 -47 -561c0 -138 39.667 -207 119 -207c72 0 131.833 39 179.5 117s71.5 179 71.5 303c0 183.333 -58 333 -174 449s-276.667 174 -482 174c-198 0 -361.667 -69.333 -491 -208
s-194 -312 -194 -520c0 -204.667 61.5 -369.834 184.5 -495.501s288.833 -188.5 497.5 -188.5c164.667 0 305.334 27.333 422.001 82v-124c-115.333 -49.333 -259.333 -74 -432 -74c-242.667 0 -438.167 73.167 -586.5 219.5s-222.5 337.833 -222.5 574.5
c0 244 77.833 446.333 233.5 607s354.5 241 596.5 241c226.667 0 414.334 -67.333 563.001 -202s223 -310.334 223 -527.001c0 -158.667 -39.167 -288.834 -117.5 -390.501s-173.833 -152.5 -286.5 -152.5c-146 0 -219.333 79.333 -220 238zM984.999 964.002
c-82.667 0 -149.499 -39.332 -200.499 -117.999s-76.5 -176.334 -76.5 -293.001c0 -78.667 17.167 -140.667 51.5 -186s80.166 -68 137.499 -68c82.667 0 148.167 41.167 196.5 123.5s72.5 191.5 72.5 327.5c0 142.667 -60.333 214 -181 214z" />
    <glyph glyph-name="A" unicode="A" horiz-adv-x="1321" 
d="M1298 0h-186l-152 402h-608l-143 -402h-187l550 1434h174zM905 553l-225 611c-7.33301 20 -14.666 52 -21.999 96h-4c-6.66699 -40.667 -14.334 -72.667 -23.001 -96l-223 -611h497z" />
    <glyph glyph-name="B" unicode="B" horiz-adv-x="1174" 
d="M188 0v1434h408c124 0 222.333 -30.333 295 -91s109 -139.667 109 -237c0 -81.333 -22 -152 -66 -212s-104.667 -102.667 -182 -128v-4c96.667 -11.333 174 -47.833 232 -109.5s87 -141.834 87 -240.501c0 -122.667 -44 -222 -132 -298s-199 -114 -333 -114h-418z
M356 1282v-463h172c92 0 164.333 22.167 217 66.5s79 106.833 79 187.5c0 139.333 -91.667 209 -275 209h-193zM356 668.001v-516h228c98.667 0 175.167 23.333 229.5 70s81.5 110.667 81.5 192c0 169.333 -115.333 254 -346 254h-193z" />
    <glyph glyph-name="C" unicode="C" horiz-adv-x="1268" 
d="M1164 60c-106 -56 -238 -83.9971 -396 -83.9971c-204 0 -367.333 65.667 -490 197s-184 303.666 -184 516.999c0 229.333 69 414.666 207 555.999s313 212 525 212c136 0 248.667 -19.667 338 -59v-179c-102.667 57.333 -216 86 -340 86
c-164.667 0 -298.167 -55 -400.5 -165s-153.5 -257 -153.5 -441c0 -174.667 47.833 -313.834 143.5 -417.501s221.167 -155.5 376.5 -155.5c144 0 268.667 32 374 96v-163z" />
    <glyph glyph-name="D" unicode="D" horiz-adv-x="1436" 
d="M188 0l-0.000976562 1434h396c505.333 0 758 -233 758 -699c0 -221.333 -70.167 -399.166 -210.5 -533.499s-328.166 -201.5 -563.499 -201.5h-380zM355.999 1282v-1130h214c188 0 334.333 50.333 439 151s157 243.334 157 428.001c0 367.333 -195.333 551 -586 551h-224
z" />
    <glyph glyph-name="E" unicode="E" horiz-adv-x="1036" 
d="M948 0h-760v1434h728v-152h-560v-477h518v-151h-518v-502h592v-152z" />
    <glyph glyph-name="F" unicode="F" horiz-adv-x="1000" 
d="M916 1282h-560v-496h518v-151h-518v-635h-168v1434h728v-152z" />
    <glyph glyph-name="G" unicode="G" horiz-adv-x="1405" 
d="M1260 98c-144 -81.333 -303.997 -122 -479.997 -122c-204.667 0 -370.167 66 -496.5 198s-189.5 306.667 -189.5 524c0 222 70.167 404.167 210.5 546.5s318.166 213.5 533.499 213.5c156 0 287 -25.333 393 -76v-186c-116 73.333 -253.333 110 -412 110
c-160.667 0 -292.334 -55.333 -395.001 -166s-154 -254 -154 -430c0 -181.333 47.667 -323.833 143 -427.5s224.666 -155.5 387.999 -155.5c112 0 209 22.333 291 67v402h-314v152h482v-650z" />
    <glyph glyph-name="H" unicode="H" horiz-adv-x="1454" 
d="M1266 0h-168v654h-742v-654h-168v1434h168v-629h742v629h168v-1434z" />
    <glyph glyph-name="I" unicode="I" horiz-adv-x="545" 
d="M496 1434v-144h-140v-1146h140v-144h-448v144h140v1146h-140v144h448z" />
    <glyph glyph-name="J" unicode="J" horiz-adv-x="731" 
d="M555 514c0 -170 -36 -302.167 -108 -396.5s-168.333 -141.5 -289 -141.5c-56 0 -102 8 -138 24v166c36 -26 82.667 -39 140 -39c151.333 0 227 128.333 227 385v922h168v-920z" />
    <glyph glyph-name="K" unicode="K" horiz-adv-x="1188" 
d="M1186 0l-233.999 -0.000976562l-554 656c-20.667 24.667 -33.334 41.334 -38.001 50.001h-4v-706h-168v1434h168v-674h4c9.33301 14.667 22 31 38 49l536 625h209l-615 -688z" />
    <glyph glyph-name="L" unicode="L" horiz-adv-x="964" 
d="M932 0h-744v1434h168v-1282h576v-152z" />
    <glyph glyph-name="M" unicode="M" horiz-adv-x="1839" 
d="M1650 0l-167 -0.000976562v962c0 76 4.66699 169 14 279h-4c-16 -64.667 -30.333 -111 -43 -139l-490 -1102h-82l-489 1094c-14 32 -28.333 81 -43 147h-4c5.33301 -57.333 8 -151 8 -281v-960h-162v1434h222l440 -1000c34 -76.667 56 -134 66 -172h6
c28.667 78.667 51.667 137.334 69 176.001l449 996h210v-1434z" />
    <glyph glyph-name="N" unicode="N" horiz-adv-x="1532" 
d="M1344 0l-206 0.00195312l-738 1143c-18.667 28.667 -34 58.667 -46 90h-6c5.33301 -30.667 8 -96.334 8 -197.001v-1036h-168v1434h218l718 -1125c30 -46.667 49.333 -78.667 58 -96h4c-6.66699 41.333 -10 111.666 -10 210.999v1010h168v-1434z" />
    <glyph glyph-name="O" unicode="O" horiz-adv-x="1544" 
d="M766 -24c-203.333 0 -366.168 66.999 -488.501 200.999s-183.5 308.333 -183.5 523c0 230.667 62.333 414.667 187 552s294.334 206 509.001 206c198 0 357.5 -66.667 478.5 -200s181.5 -307.666 181.5 -522.999c0 -234 -62 -419 -186 -555s-290 -204 -498 -204z
M777.998 1306c-150.667 0 -273 -54.3311 -367 -162.998s-141 -251.334 -141 -428.001s45.833 -318.834 137.5 -426.501s211.167 -161.5 358.5 -161.5c157.333 0 281.333 51.333 372 154s136 246.334 136 431.001c0 189.333 -44 335.666 -132 438.999s-209.333 155 -364 155z
" />
    <glyph glyph-name="P" unicode="P" horiz-adv-x="1147" 
d="M356 542l0.000976562 -542h-168v1434h394c153.333 0 272.166 -37.333 356.499 -112s126.5 -180 126.5 -316s-46.833 -247.333 -140.5 -334s-220.167 -130 -379.5 -130h-189zM356.001 1282v-588h176c116 0 204.5 26.5 265.5 79.5s91.5 127.833 91.5 224.5
c0 189.333 -112 284 -336 284h-197z" />
    <glyph glyph-name="Q" unicode="Q" horiz-adv-x="1544" 
d="M756 -24c-42.667 0 -86.001 4.16699 -130.001 12.5s-86.667 21 -128 38s-80.833 38 -118.5 63s-71.834 54.167 -102.501 87.5c-122 133.333 -183 307.666 -183 522.999c0 231.333 62 415.333 186 552c125.333 137.333 296.666 206 513.999 206
c194.667 0 352.667 -66.667 474 -200s182 -307.666 182 -522.999c0 -90.667 -10.167 -176.167 -30.5 -256.5s-51.166 -152.833 -92.499 -217.5s-93.333 -119.5 -156 -164.5s-136.667 -77.167 -222 -96.5c34.667 -37.333 67.167 -70.333 97.5 -99
s60.666 -52.834 90.999 -72.501s61.833 -34.5 94.5 -44.5s68.667 -15 108 -15c10.667 0 22.334 0.5 35.001 1.5s25.5 2.66699 38.5 5s25.5 5 37.5 8s23 6.5 33 10.5v-162c-10.667 -3.33301 -22.667 -6.16602 -36 -8.49902s-26.833 -4.33301 -40.5 -6s-27.167 -3 -40.5 -4
s-25.666 -1.5 -36.999 -1.5c-64 0 -121.5 9.5 -172.5 28.5s-98.667 45 -143 78s-87.166 71.5 -128.499 115.5zM777.999 1306c-150.667 0 -273 -54.333 -367 -163s-141 -251.334 -141 -428.001c0 -176 45.667 -318.333 137 -427c92 -107.333 211.667 -161 359 -161
c157.333 0 281.333 51.333 372 154s136 246.334 136 431.001c0 190 -44 336.333 -132 439c-88 103.333 -209.333 155 -364 155z" />
    <glyph glyph-name="R" unicode="R" horiz-adv-x="1225" 
d="M1216 0l-199.999 0.00390625l-240 402c-22 37.333 -43.333 69.166 -64 95.499s-41.834 47.833 -63.501 64.5s-45 28.834 -70 36.501s-53.167 11.5 -84.5 11.5h-138v-610h-168v1434h428c62.667 0 120.5 -7.83301 173.5 -23.5s99 -39.5 138 -71.5s69.5 -71.833 91.5 -119.5
s33 -103.5 33 -167.5c0 -50 -7.5 -95.833 -22.5 -137.5s-36.333 -78.834 -64 -111.501s-61 -60.5 -100 -83.5s-82.833 -40.833 -131.5 -53.5v-4c24 -10.667 44.833 -22.834 62.5 -36.501s34.5 -29.834 50.5 -48.501s31.833 -39.834 47.5 -63.501l52.5 -82.5zM356.001 1282
v-520.001h228c42 0 80.833 6.33301 116.5 19s66.5 30.834 92.5 54.501s46.333 52.667 61 87s22 72.833 22 115.5c0 76.667 -24.833 136.5 -74.5 179.5s-121.5 64.5 -215.5 64.5h-230z" />
    <glyph glyph-name="S" unicode="S" horiz-adv-x="1088" 
d="M121 58l-0.000976562 198c22.667 -20 49.834 -38 81.501 -54s65 -29.5 100 -40.5s70.167 -19.5 105.5 -25.5s68 -9 98 -9c103.333 0 180.5 19.167 231.5 57.5s76.5 93.5 76.5 165.5c0 38.667 -8.5 72.334 -25.5 101.001s-40.5 54.834 -70.5 78.501
s-65.5 46.334 -106.5 68.001l-132.5 68.5c-50 25.333 -96.667 51 -140 77s-81 54.667 -113 86s-57.167 66.833 -75.5 106.5s-27.5 86.167 -27.5 139.5c0 65.333 14.333 122.166 43 170.499s66.334 88.166 113.001 119.499s99.834 54.666 159.501 69.999s120.5 23 182.5 23
c141.333 0 244.333 -17 309 -51v-189c-84.667 58.667 -193.334 88 -326.001 88c-36.667 0 -73.334 -3.83301 -110.001 -11.5s-69.334 -20.167 -98.001 -37.5s-52 -39.666 -70 -66.999s-27 -60.666 -27 -99.999c0 -36.667 6.83301 -68.334 20.5 -95.001
s33.834 -51 60.501 -73s59.167 -43.333 97.5 -64s82.5 -43.334 132.5 -68.001c51.333 -25.333 100 -52 146 -80s86.333 -59 121 -93s62.167 -71.667 82.5 -113s30.5 -88.666 30.5 -141.999c0 -70.667 -13.833 -130.5 -41.5 -179.5s-65 -88.833 -112 -119.5
s-101.167 -52.834 -162.5 -66.501s-126 -20.5 -194 -20.5c-22.667 0 -50.667 1.83301 -84 5.5s-67.333 9 -102 16s-67.5 15.667 -98.5 26s-55.833 21.833 -74.5 34.5z" />
    <glyph glyph-name="T" unicode="T" horiz-adv-x="1073" 
d="M1036 1282h-414v-1282h-168v1282h-413v152h995v-152z" />
    <glyph glyph-name="U" unicode="U" horiz-adv-x="1407" 
d="M1237 580c0 -402.667 -181.667 -604 -545 -604c-348 0 -522 193.667 -522 581v877h168v-866c0 -294 124 -441 372 -441c239.333 0 359 142 359 426v881h168v-854z" />
    <glyph glyph-name="V" unicode="V" horiz-adv-x="1272" 
d="M1254 1434l-531.001 -1434h-185l-520 1434h187l397 -1137c12.667 -36.667 22.334 -79 29.001 -127h4c5.33301 40 16.333 83 33 129l405 1135h181z" />
    <glyph glyph-name="W" unicode="W" horiz-adv-x="1913" 
d="M1888 1434l-404.998 -1434h-197l-295 1048c-12.667 44.667 -20.334 93.334 -23.001 146.001h-4c-4 -49.333 -12.667 -97.333 -26 -144l-297 -1050h-195l-420 1434h185l305 -1100c12.667 -46 20.667 -94 24 -144h5c3.33301 35.333 13.666 83.333 30.999 144l317 1100h161
l304 -1108c10.667 -38 18.667 -82.667 24 -134h4c2.66699 34.667 11.667 80.667 27 138l293 1104h182z" />
    <glyph glyph-name="X" unicode="X" horiz-adv-x="1208" 
d="M1178 0l-205 -0.00195312l-330 549c-10 16.667 -21 40.334 -33 71.001h-4c-6.66699 -15.333 -18 -39 -34 -71l-340 -549h-206l480 721l-442 713h206l293 -504c19.333 -33.333 36.333 -66.666 51 -99.999h4c21.333 44 40 78.667 56 104l305 500h193l-451 -711z" />
    <glyph glyph-name="Y" unicode="Y" horiz-adv-x="1132" 
d="M1120 1434l-473.001 -904v-530h-168v526l-461 908h191l321 -648c4 -8 15.667 -37.333 35 -88h3c6.66699 22.667 19.334 52 38.001 88l336 648h178z" />
    <glyph glyph-name="Z" unicode="Z" horiz-adv-x="1168" 
d="M1124 1394l-840 -1242h820v-152h-1071v47l833 1235h-766v152h1024v-40z" />
    <glyph glyph-name="bracketleft" unicode="[" horiz-adv-x="618" 
d="M568 -326h-368v1760h368v-119h-222v-1522h222v-119z" />
    <glyph glyph-name="backslash" unicode="\" horiz-adv-x="776" 
d="M798 -240h-151l-673 1674h155z" />
    <glyph glyph-name="bracketright" unicode="]" horiz-adv-x="618" 
d="M420 -326h-367v119h221v1522h-221v119h367v-1760z" />
    <glyph glyph-name="asciicircum" unicode="^" horiz-adv-x="1401" 
d="M1174 624h-150l-332 619h-6l-309 -619h-147l422 834h65z" />
    <glyph glyph-name="underscore" unicode="_" horiz-adv-x="850" 
d="M850 -297h-850v119h850v-119z" />
    <glyph glyph-name="grave" unicode="`" horiz-adv-x="549" 
d="M471 1218h-127l-262 328h168z" />
    <glyph glyph-name="a" unicode="a" horiz-adv-x="1042" 
d="M899 0l-164.001 0.000976562v160h-4c-71.333 -122.667 -176.333 -184 -315 -184c-102 0 -181.833 27 -239.5 81s-86.5 125.667 -86.5 215c0 191.333 112.667 302.666 338 333.999l307 43c0 174 -70.333 261 -211 261c-123.333 0 -234.666 -42 -333.999 -126v168
c100.667 64 216.667 96 348 96c240.667 0 361 -127.333 361 -382v-666zM734.999 518.001l-247 -34c-76 -10.667 -133.333 -29.5 -172 -56.5s-58 -74.833 -58 -143.5c0 -50 17.833 -90.833 53.5 -122.5s83.167 -47.5 142.5 -47.5c81.333 0 148.5 28.5 201.5 85.5
s79.5 129.167 79.5 216.5v102z" />
    <glyph glyph-name="b" unicode="b" horiz-adv-x="1204" 
d="M334 148h-4v-148h-164v1516h164v-672h4c80.667 136 198.667 204 354 204c131.333 0 234.166 -45.833 308.499 -137.5s111.5 -214.5 111.5 -368.5c0 -171.333 -41.667 -308.5 -125 -411.5s-197.333 -154.5 -342 -154.5c-135.333 0 -237.666 57.333 -306.999 172zM330 561
l0.000976562 -143c0 -84.667 27.5 -156.5 82.5 -215.5s124.833 -88.5 209.5 -88.5c99.333 0 177.166 38 233.499 114s84.5 181.667 84.5 317c0 114 -26.333 203.333 -79 268s-124 97 -214 97c-95.333 0 -172 -33.167 -230 -99.5s-87 -149.5 -87 -249.5z" />
    <glyph glyph-name="c" unicode="c" horiz-adv-x="946" 
d="M864 47c-78.667 -47.333 -172 -71 -280 -71c-146 0 -263.833 47.5 -353.5 142.5s-134.5 218.167 -134.5 369.5c0 168.667 48.333 304.167 145 406.5s225.667 153.5 387 153.5c90 0 169.333 -16.667 238 -50v-168c-76 53.333 -157.333 80 -244 80
c-104.667 0 -190.5 -37.5 -257.5 -112.5s-100.5 -173.5 -100.5 -295.5c0 -120 31.5 -214.667 94.5 -284s147.5 -104 253.5 -104c89.333 0 173.333 29.667 252 89v-156z" />
    <glyph glyph-name="d" unicode="d" horiz-adv-x="1206" 
d="M1040 0h-164v174h-4c-76 -132 -193.333 -198 -352 -198c-128.667 0 -231.5 45.833 -308.5 137.5s-115.5 216.5 -115.5 374.5c0 169.333 42.667 305 128 407s199 153 341 153c140.667 0 243 -55.333 307 -166h4v634h164v-1516zM876 463v150.999
c0 82.667 -27.333 152.667 -82 210s-124 86 -208 86c-100 0 -178.667 -36.667 -236 -110s-86 -174.666 -86 -303.999c0 -118 27.5 -211.167 82.5 -279.5s128.833 -102.5 221.5 -102.5c91.333 0 165.5 33 222.5 99s85.5 149.333 85.5 250z" />
    <glyph glyph-name="e" unicode="e" horiz-adv-x="1071" 
d="M989 471l-723.001 0.000976562c2.66699 -114 33.334 -202 92.001 -264s139.334 -93 242.001 -93c115.333 0 221.333 38 318 114v-154c-90 -65.333 -209 -98 -357 -98c-144.667 0 -258.334 46.5 -341.001 139.5s-124 223.833 -124 392.5
c0 159.333 45.167 289.166 135.5 389.499s202.5 150.5 336.5 150.5s237.667 -43.333 311 -130s110 -207 110 -361v-86zM820.999 610.001c-0.666992 94.667 -23.5 168.332 -68.5 220.999s-107.5 79 -187.5 79c-77.333 0 -143 -27.667 -197 -83
s-87.333 -127.666 -100 -216.999h553z" />
    <glyph glyph-name="f" unicode="f" horiz-adv-x="641" 
d="M672 1372c-32 18 -68.333 27.001 -109 27.001c-114.667 0 -172 -72.333 -172 -217v-158h240v-140h-240v-884h-163v884h-175v140h175v166c0 107.333 31 192.166 93 254.499s139.333 93.5 232 93.5c50 0 89.667 -6 119 -18v-148z" />
    <glyph glyph-name="g" unicode="g" horiz-adv-x="1206" 
d="M1040 82c0 -376 -179.999 -564 -539.999 -564c-126.667 0 -237.334 24 -332.001 72v164c115.333 -64 225.333 -96 330 -96c252 0 378 134 378 402v112h-4c-78 -130.667 -195.333 -196 -352 -196c-127.333 0 -229.833 45.5 -307.5 136.5s-116.5 213.167 -116.5 366.5
c0 174 41.833 312.333 125.5 415s198.167 154 343.5 154c138 0 240.333 -55.333 307 -166h4v142h164v-942zM876.001 463l-0.000976562 151.001c0 81.333 -27.5 151 -82.5 209s-123.5 87 -205.5 87c-101.333 0 -180.666 -36.833 -237.999 -110.5s-86 -176.834 -86 -309.501
c0 -114 27.5 -205.167 82.5 -273.5s127.833 -102.5 218.5 -102.5c92 0 166.833 32.667 224.5 98s86.5 149 86.5 251z" />
    <glyph glyph-name="h" unicode="h" horiz-adv-x="1159" 
d="M1016 0l-164 0.000976562v590c0 213.333 -79.333 320 -238 320c-80 0 -147.333 -30.833 -202 -92.5s-82 -140.834 -82 -237.501v-580h-164v1516h164v-662h4c78.667 129.333 190.667 194 336 194c230.667 0 346 -139 346 -417v-631z" />
    <glyph glyph-name="i" unicode="i" horiz-adv-x="496" 
d="M250 1284c-29.333 0 -54.333 10 -75 30s-31 45.333 -31 76s10.333 56.167 31 76.5s45.667 30.5 75 30.5c30 0 55.5 -10.167 76.5 -30.5s31.5 -45.833 31.5 -76.5c0 -29.333 -10.5 -54.333 -31.5 -75s-46.5 -31 -76.5 -31zM330 0h-164v1024h164v-1024z" />
    <glyph glyph-name="j" unicode="j" horiz-adv-x="496" 
d="M330 43c0 -168 -33.833 -297.5 -101.5 -388.5s-164.5 -136.5 -290.5 -136.5c-46.667 0 -92 10.667 -136 32v153c49.333 -30 96 -45 140 -45c149.333 0 224 119.333 224 358v1008h164v-981zM250 1284c-29.333 0 -54.333 10 -75 30s-31 45.333 -31 76
s10.333 56.167 31 76.5s45.667 30.5 75 30.5c30 0 55.5 -10.167 76.5 -30.5s31.5 -45.833 31.5 -76.5c0 -29.333 -10.5 -54.333 -31.5 -75s-46.5 -31 -76.5 -31z" />
    <glyph glyph-name="k" unicode="k" horiz-adv-x="1018" 
d="M1016 0h-230l-452 492h-4v-492h-164v1516h164v-961h4l430 469h215l-475 -494z" />
    <glyph glyph-name="l" unicode="l" horiz-adv-x="496" 
d="M330 0h-164v1516h164v-1516z" />
    <glyph glyph-name="m" unicode="m" horiz-adv-x="1764" 
d="M1620 0h-164v588c0 113.333 -17.5 195.333 -52.5 246s-93.833 76 -176.5 76c-70 0 -129.5 -32 -178.5 -96s-73.5 -140.667 -73.5 -230v-584h-164v608c0 201.333 -77.667 302 -233 302c-72 0 -131.333 -30.167 -178 -90.5s-70 -138.833 -70 -235.5v-584h-164v1024h164
v-162h4c72.667 124 178.667 186 318 186c70 0 131 -19.5 183 -58.5s87.667 -90.167 107 -153.5c76 141.333 189.333 212 340 212c225.333 0 338 -139 338 -417v-631z" />
    <glyph glyph-name="n" unicode="n" horiz-adv-x="1159" 
d="M1016 0h-164v584c0 217.333 -79.333 326 -238 326c-82 0 -149.833 -30.833 -203.5 -92.5s-80.5 -139.5 -80.5 -233.5v-584h-164v1024h164v-170h4c77.333 129.333 189.333 194 336 194c112 0 197.667 -36.167 257 -108.5s89 -176.833 89 -313.5v-626z" />
    <glyph glyph-name="o" unicode="o" horiz-adv-x="1200" 
d="M594 -24c-151.333 0 -272.169 47.832 -362.502 143.499s-135.5 222.5 -135.5 380.5c0 172 47 306.333 141 403s221 145 381 145c152.667 0 271.834 -47 357.501 -141s128.5 -224.333 128.5 -391c0 -163.333 -46.167 -294.166 -138.5 -392.499
s-216.166 -147.5 -371.499 -147.5zM605.997 909.999c-105.333 0 -188.667 -35.834 -250 -107.501s-92 -170.5 -92 -296.5c0 -121.333 31 -217 93 -287s145 -105 249 -105c106 0 187.5 34.333 244.5 103s85.5 166.334 85.5 293.001c0 128 -28.5 226.667 -85.5 296
s-138.5 104 -244.5 104z" />
    <glyph glyph-name="p" unicode="p" horiz-adv-x="1204" 
d="M334 148h-4v-619h-164v1495h164v-180h4c80.667 136 198.667 204 354 204c132 0 235 -45.833 309 -137.5s111 -214.5 111 -368.5c0 -171.333 -41.667 -308.5 -125 -411.5s-197.333 -154.5 -342 -154.5c-132.667 0 -235 57.333 -307 172zM330 561l0.000976562 -143
c0 -84.667 27.5 -156.5 82.5 -215.5s124.833 -88.5 209.5 -88.5c99.333 0 177.166 38 233.499 114s84.5 181.667 84.5 317c0 114 -26.333 203.333 -79 268s-124 97 -214 97c-95.333 0 -172 -33.167 -230 -99.5s-87 -149.5 -87 -249.5z" />
    <glyph glyph-name="q" unicode="q" horiz-adv-x="1206" 
d="M1040 -471h-163.999v647h-4c-71.333 -133.333 -188 -200 -350 -200c-128.667 0 -231.834 45.833 -309.501 137.5s-116.5 216.5 -116.5 374.5c0 170 42.667 305.833 128 407.5s200 152.5 344 152.5c140 0 241.333 -55.333 304 -166h4v142h164v-1495zM876.001 461
l0.000976562 149c0 84 -27.5 155 -82.5 213s-124.833 87 -209.5 87c-98.667 0 -176.667 -36.5 -234 -109.5s-86 -175.833 -86 -308.5c0 -118 27.667 -210.5 83 -277.5s126.666 -100.5 213.999 -100.5c96 0 172.5 32.833 229.5 98.5s85.5 148.5 85.5 248.5z" />
    <glyph glyph-name="r" unicode="r" horiz-adv-x="712" 
d="M700 858c-28.667 22 -70.001 33 -124.001 33c-70 0 -128.5 -33 -175.5 -99s-70.5 -156 -70.5 -270v-522h-164v1024h164v-211h4c23.333 72 59 128.167 107 168.5s101.667 60.5 161 60.5c42.667 0 75.334 -4.66699 98.001 -14v-170z" />
    <glyph glyph-name="s" unicode="s" horiz-adv-x="869" 
d="M104 37l-0.000976562 176c89.333 -66 187.666 -99 294.999 -99c144 0 216 48 216 144c0 27.333 -6.16699 50.5 -18.5 69.5s-29 35.833 -50 50.5s-45.667 27.834 -74 39.501l-91.5 36.5c-45.333 18 -85.166 36.167 -119.499 54.5s-63 39 -86 62s-40.333 49.167 -52 78.5
s-17.5 63.666 -17.5 102.999c0 48 11 90.5 33 127.5s51.333 68 88 93s78.5 43.833 125.5 56.5s95.5 19 145.5 19c88.667 0 168 -15.333 238 -46v-166c-75.333 49.333 -162 74 -260 74c-30.667 0 -58.334 -3.5 -83.001 -10.5s-45.834 -16.833 -63.501 -29.5
s-31.334 -27.834 -41.001 -45.501s-14.5 -37.167 -14.5 -58.5c0 -26.667 4.83301 -49 14.5 -67s23.834 -34 42.501 -48s41.334 -26.667 68.001 -38l91 -37c45.333 -17.333 86 -35.166 122 -53.499s66.667 -39 92 -62s44.833 -49.5 58.5 -79.5s20.5 -65.667 20.5 -107
c0 -50.667 -11.167 -94.667 -33.5 -132s-52.166 -68.333 -89.499 -93s-80.333 -43 -129 -55s-99.667 -18 -153 -18c-105.333 0 -196.666 20.333 -273.999 61z" />
    <glyph glyph-name="t" unicode="t" horiz-adv-x="694" 
d="M641 10c-38.667 -21.333 -89.667 -32 -153 -32c-179.333 0 -269 100 -269 300v606h-176v140h176v250l164 53v-303h258v-140h-258v-577c0 -68.667 11.667 -117.667 35 -147s62 -44 116 -44c41.333 0 77 11.333 107 34v-140z" />
    <glyph glyph-name="u" unicode="u" horiz-adv-x="1159" 
d="M994 0h-164v162h-4c-68 -124 -173.333 -186 -316 -186c-244 0 -366 145.333 -366 436v612h163v-586c0 -216 82.667 -324 248 -324c80 0 145.833 29.5 197.5 88.5s77.5 136.167 77.5 231.5v590h164v-1024z" />
    <glyph glyph-name="v" unicode="v" horiz-adv-x="981" 
d="M971 1024l-408.001 -1024h-161l-388 1024h180l260 -744c19.333 -54.667 31.333 -102.334 36 -143.001h4c6.66699 51.333 17.334 97.666 32.001 138.999l272 748h173z" />
    <glyph glyph-name="w" unicode="w" horiz-adv-x="1480" 
d="M1456 1024l-307.001 -1024h-170l-211 733c-8 28 -13.333 59.667 -16 95h-4c-2 -24 -9 -55 -21 -93l-229 -735h-164l-310 1024h172l212 -770c6.66699 -23.333 11.334 -54 14.001 -92h8c2 29.333 8 60.666 18 93.999l236 768h150l212 -772
c6.66699 -24.667 11.667 -55.334 15 -92.001h8c1.33301 26 7 56.667 17 92l208 772h162z" />
    <glyph glyph-name="x" unicode="x" horiz-adv-x="940" 
d="M914 1024l-344 -518l338 -506h-191l-201 332c-12.667 20.667 -27.667 46.667 -45 78h-4c-3.33301 -6 -19 -32 -47 -78l-205 -332h-189l349 502l-334 522h191l198 -350l43 -80h4l256 430h181z" />
    <glyph glyph-name="y" unicode="y" horiz-adv-x="991" 
d="M981 1024l-470.998 -1188c-84 -212 -202 -318 -354 -318c-42.667 0 -78.334 4.33301 -107.001 13v147c35.333 -12 67.666 -18 96.999 -18c82.667 0 144.667 49.333 186 148l82 194l-400 1022h182l277 -788c3.33301 -10 10.333 -36 21 -78h6c3.33301 16 10 41.333 20 76
l291 790h170z" />
    <glyph glyph-name="z" unicode="z" horiz-adv-x="926" 
d="M880 977l-606 -837h600v-140h-841v51l606 833h-549v140h790v-47z" />
    <glyph glyph-name="braceleft" unicode="{" horiz-adv-x="618" 
d="M555 -326c-204.667 2.66699 -307.001 105.998 -307.001 309.998v300c0 134.667 -52 205.334 -156 212.001v116c104 6.66699 156 78.667 156 216v292c0 206.667 102.333 311.334 307 314.001v-128c-106 -2.66699 -159 -68.667 -159 -198v-293c0 -140 -50 -226 -150 -258
v-4c100 -30 150 -115.333 150 -256v-289c0 -74 11.833 -126.833 35.5 -158.5s64.834 -48.167 123.501 -49.5v-126z" />
    <glyph glyph-name="bar" unicode="|" horiz-adv-x="490" 
d="M320 -482h-148v2048h148v-2048z" />
    <glyph glyph-name="braceright" unicode="}" horiz-adv-x="618" 
d="M528 496c-104 -6.66699 -156 -77.332 -156 -211.999v-300c0 -204 -102 -307.333 -306 -310v126c58 1.33301 99.167 18 123.5 50s36.5 84.667 36.5 158v289c0 140.667 49.667 226 149 256v4c-99.333 32 -149 118 -149 258v293c0 129.333 -53.333 195.333 -160 198v128
c204 -2.66699 306 -107.334 306 -314.001v-292c0 -137.333 52 -209.333 156 -216v-116z" />
    <glyph glyph-name="asciitilde" unicode="~" horiz-adv-x="1401" 
d="M1194 750c-4.66699 -98.667 -31.502 -175 -80.502 -229s-115.5 -81 -199.5 -81c-72.667 0 -161 36.333 -265 109c-64.667 44.667 -117.667 67 -159 67c-93.333 0 -142 -58.667 -146 -176h-135c3.33301 95.333 29.833 170.833 79.5 226.5s116.834 83.5 201.501 83.5
c70.667 0 149 -29.333 235 -88c88 -60 153.667 -90 197 -90c40.667 0 73.334 16.333 98.001 49s37.667 75.667 39 129h135z" />
    <glyph glyph-name="exclamdown" unicode="&#xa1;" horiz-adv-x="582" 
d="M291 826c-30.667 0 -56.834 10.667 -78.501 32s-32.5 47.333 -32.5 78s10.833 56.667 32.5 78s47.834 32 78.501 32c30 0 56 -10.667 78 -32s33 -47.333 33 -78s-11 -56.667 -33 -78s-48 -32 -78 -32zM379 -406h-172l19 1030h134z" />
    <glyph glyph-name="cent" unicode="&#xa2;" horiz-adv-x="1104" 
d="M952 209c-64 -39.333 -137.667 -62.334 -221 -69.001v-189h-125v191c-128.667 14.667 -231.167 68.334 -307.5 161.001s-114.5 208 -114.5 346c0 146 38.167 268.167 114.5 366.5s178.833 159.833 307.5 184.5v213h125v-203c82 -1.33301 155.667 -18.333 221 -51v-172
c-67.333 47.333 -141 73.333 -221 78v-785c81.333 8 155 36.667 221 86v-157zM606 290.999v761c-79.333 -20.667 -141.5 -65.167 -186.5 -133.5s-67.5 -152.5 -67.5 -252.5s22.667 -183 68 -249s107.333 -108 186 -126z" />
    <glyph glyph-name="sterling" unicode="&#xa3;" horiz-adv-x="1104" 
d="M1006 0h-900v135c145.333 46 218 150.333 218 313v187h-197v141h197v254c0 125.333 36.333 228 109 308s166.667 120 282 120c78 0 149 -13.667 213 -41v-155c-66.667 38 -137 57 -211 57c-152.667 0 -229 -102.333 -229 -307v-236h296v-141h-296v-156
c0 -161.333 -64.333 -274.333 -193 -339h711v-140z" />
    <glyph glyph-name="currency" unicode="&#xa4;" horiz-adv-x="1138" 
d="M1038 354l-92 -96l-137 138c-70 -50.667 -149.667 -76 -239 -76c-90.667 0 -170.667 25.333 -240 76l-138 -138l-92 96l138 134c-50.667 75.333 -76 154.333 -76 237c0 86 25.333 165 76 237l-138 136l92 96l138 -137c73.333 51.333 153.333 77 240 77
c86 0 165 -25.667 237 -77l139 137l92 -96l-137 -136c52 -74.667 78 -153.667 78 -237c0 -80.667 -26 -159.667 -78 -237zM570 1002c-77.333 0 -142.5 -27 -195.5 -81s-79.5 -118.667 -79.5 -194s26.833 -140 80.5 -194s118.5 -81 194.5 -81c75.333 0 140.166 27 194.499 81
s81.5 118.667 81.5 194s-27.667 140 -83 194s-119.666 81 -192.999 81z" />
    <glyph glyph-name="yen" unicode="&#xa5;" horiz-adv-x="1104" 
d="M1042 1434l-356.001 -656h285v-139h-334v-207h334v-139h-334v-293h-164v293h-344v139h344v207h-344v139h291l-352 656h192l250 -514c18.667 -38.667 34.334 -75.667 47.001 -111h4c8.66699 28 25 67 49 117l252 508h180z" />
    <glyph glyph-name="brokenbar" unicode="&#xa6;" horiz-adv-x="490" 
d="M320 715h-148v851h148v-851zM320 -482h-148v852h148v-852z" />
    <glyph glyph-name="section" unicode="&#xa7;" horiz-adv-x="918" 
d="M658 416c60 -49.333 90 -111.331 90 -185.998c0 -88 -33.333 -159.333 -100 -214s-151.667 -82 -255 -82c-87.333 0 -167 18.667 -239 56v158c86.667 -49.333 170 -74 250 -74c56 0 99.333 13.167 130 39.5s46 59.5 46 99.5c0 35.333 -11.833 65.166 -35.5 89.499
s-83.834 62.166 -180.501 113.499c-155.333 81.333 -233 187 -233 317c0 108.667 49 190 147 244c-70.667 55.333 -106 129.666 -106 222.999c0 84.667 31.167 154.334 93.5 209.001s144.5 82 246.5 82c86.667 0 159.667 -14.333 219 -43v-158
c-67.333 41.333 -141.666 62 -222.999 62c-112 0 -168 -48 -168 -144c0 -36.667 13.5 -70 40.5 -100s94.833 -71 203.5 -123c148.667 -71.333 223 -169 223 -293c0 -113.333 -49.667 -205.333 -149 -276zM398 905.002c-67.333 -34 -101 -87 -101 -159
c0 -48 18.833 -90.167 56.5 -126.5s103.5 -75.5 197.5 -117.5c58.667 45.333 88 102.666 88 171.999c0 48 -17.5 88.833 -52.5 122.5s-97.833 69.834 -188.5 108.501z" />
    <glyph glyph-name="dieresis" unicode="&#xa8;" horiz-adv-x="848" 
d="M610 1218c-26.667 0 -49.668 9.33105 -69.001 27.998s-29 42.334 -29 71.001c0 28 9.33301 51.333 28 70s41.334 28 68.001 28c28 0 51.667 -9.5 71 -28.5s29 -42.167 29 -69.5s-9.33301 -50.666 -28 -69.999s-42 -29 -70 -29zM225.999 1218
c-28 0 -51.833 9.83105 -71.5 29.498s-29.5 42.834 -29.5 69.501c0 28 9.5 51.333 28.5 70s42.167 28 69.5 28s51 -9.5 71 -28.5s30 -42.167 30 -69.5s-9.66699 -50.666 -29 -69.999s-42.333 -29 -69 -29z" />
    <glyph glyph-name="copyright" unicode="&#xa9;" horiz-adv-x="1823" 
d="M912 -33c-207.333 0 -384.166 73.167 -530.499 219.5s-219.5 323.166 -219.5 530.499s73.167 384.166 219.5 530.499s323.166 219.5 530.499 219.5c206.667 0 383.167 -73.167 529.5 -219.5s219.5 -323.166 219.5 -530.499s-73.167 -384.166 -219.5 -530.499
s-322.833 -219.5 -529.5 -219.5zM912 1379c-182.667 0 -338.667 -64.667 -468 -194s-194 -285.333 -194 -468s64.667 -338.5 194 -467.5s285.333 -193.5 468 -193.5s338.5 64.5 467.5 193.5s193.5 284.833 193.5 467.5s-64.5 338.667 -193.5 468s-284.833 194 -467.5 194z
M1213 266c-76 -46 -165.666 -68.999 -268.999 -68.999c-139.333 0 -256 47.167 -350 141.5s-141 212.166 -141 353.499c0 164.667 48.167 296 144.5 394s221.5 147 375.5 147c88 0 166.667 -17.667 236 -53v-150c-63.333 48 -148 72 -254 72
c-104 0 -189.833 -35.5 -257.5 -106.5s-101.5 -166.5 -101.5 -286.5c0 -116 34.5 -209.167 103.5 -279.5s156.833 -105.5 263.5 -105.5c97.333 0 180.666 26 249.999 78v-136z" />
    <glyph glyph-name="ordfeminine" unicode="&#xaa;" horiz-adv-x="803" 
d="M688 717h-128.999v100h-4c-52.667 -79.333 -129.667 -119 -231 -119c-72.667 0 -131.167 19.833 -175.5 59.5s-66.5 90.5 -66.5 152.5c0 134.667 82.667 213 248 235l229 31c0 112 -50.333 168 -151 168c-90.667 0 -175.334 -28.667 -254.001 -86v128
c74 46.667 162.667 70 266 70c84 0 149.667 -24 197 -72s71 -115.333 71 -202v-465zM559.001 1075l-180.002 -25.001c-112 -15.333 -168 -60 -168 -134c0 -34 12.833 -61.667 38.5 -83s59.834 -32 102.501 -32c54.667 0 102.834 20.333 144.501 61s62.5 89.334 62.5 146.001
v67z" />
    <glyph glyph-name="guillemotleft" unicode="&#xab;" horiz-adv-x="1036" 
d="M946 200h-168l-299 336l299 344h170l-307 -344zM557 200h-166l-299 336l299 344h166l-303 -344z" />
    <glyph glyph-name="logicalnot" unicode="&#xac;" horiz-adv-x="1401" 
d="M1172 254h-132v430h-808v133h940v-563z" />
    <glyph glyph-name="registered" unicode="&#xae;" horiz-adv-x="1823" 
d="M912 -33c-207.333 0 -384.166 73.167 -530.499 219.5s-219.5 323.166 -219.5 530.499s73.167 384.166 219.5 530.499s323.166 219.5 530.499 219.5c206.667 0 383.167 -73.167 529.5 -219.5s219.5 -323.166 219.5 -530.499s-73.167 -384.166 -219.5 -530.499
s-322.833 -219.5 -529.5 -219.5zM912 1379c-182.667 0 -338.667 -64.667 -468 -194s-194 -285.333 -194 -468s64.667 -338.5 194 -467.5s285.333 -193.5 468 -193.5s338.5 64.5 467.5 193.5s193.5 284.833 193.5 467.5s-64.5 338.667 -193.5 468s-284.833 194 -467.5 194z
M1276 248h-161.998l-104 229c-52.667 114.667 -109.334 172 -170.001 172h-88v-401h-133v954h268c111.333 0 197.166 -23.333 257.499 -70s90.5 -110 90.5 -190c0 -65.333 -21.167 -121 -63.5 -167s-101.5 -77 -177.5 -93v-4c52.667 -11.333 105 -70 157 -176zM752.002 1088
v-326.001h143c131.333 0 197 54.667 197 164c0 58.667 -17.667 100.334 -53 125.001s-91.333 37 -168 37h-119z" />
    <glyph glyph-name="macron" unicode="&#x2c9;" horiz-adv-x="635" 
d="M570 1218h-508v109h508v-109z" />
    <glyph glyph-name="macron" unicode="&#xaf;" horiz-adv-x="635" 
d="M570 1218h-508v109h508v-109z" />
    <glyph glyph-name="degree" unicode="&#xb0;" horiz-adv-x="772" 
d="M385 897c-76.667 0 -141.999 27.167 -195.999 81.5s-81 120.166 -81 197.499c0 76.667 26.667 141.5 80 194.5s118.333 79.5 195 79.5c77.333 0 143.166 -26.667 197.499 -80s81.5 -118 81.5 -194c0 -77.333 -27 -143.166 -81 -197.499s-119.333 -81.5 -196 -81.5z
M385.001 1333c-43.333 0 -80.332 -15.332 -110.999 -45.999s-46 -67.667 -46 -111c0 -44.667 15 -82.834 45 -114.501s66.667 -47.5 110 -47.5s80.666 16 111.999 48s47 70 47 114s-15.333 81.167 -46 111.5s-67.667 45.5 -111 45.5z" />
    <glyph glyph-name="plusminus" unicode="&#xb1;" horiz-adv-x="1401" 
d="M1172 652h-404v-404h-131v404h-405v132h405v404h131v-404h404v-132zM1172 0h-940v133h940v-133z" />
    <glyph glyph-name="twosuperior" unicode="&#xb2;" horiz-adv-x="750" 
d="M658 884h-554.001v114l240 236c69.333 68 113.333 120.167 132 156.5s28 72.833 28 109.5c0 38.667 -12.667 70.167 -38 94.5s-58.666 36.5 -99.999 36.5c-78.667 0 -150.667 -34 -216 -102v149c56 50.667 134.333 76 235 76c78.667 0 141 -22 187 -66s69 -102 69 -174
c0 -102 -68.333 -218 -205 -348l-164 -156v-4h386v-122z" />
    <glyph glyph-name="threesuperior" unicode="&#xb3;" horiz-adv-x="750" 
d="M129 916l0.000976562 142c68.667 -50.667 141 -76 217 -76c53.333 0 95.333 12.5 126 37.5s46 58.833 46 101.5c0 94 -73 141 -219 141h-84v118h80c131.333 0 197 44.667 197 134c0 79.333 -48 119 -144 119c-62.667 0 -124.667 -23 -186 -69v139c58 34 129 51 213 51
c75.333 0 135.333 -19.833 180 -59.5s67 -91.5 67 -155.5c0 -100.667 -48.333 -169 -145 -205v-4c118 -28 177 -95.333 177 -202c0 -78 -28.333 -141.667 -85 -191s-132.334 -74 -227.001 -74c-91.333 0 -162.333 17.667 -213 53z" />
    <glyph glyph-name="acute" unicode="&#xb4;" horiz-adv-x="578" 
d="M524 1546l-262 -328h-127l223 328h166z" />
    <glyph glyph-name="mu1" unicode="&#x3bc;" horiz-adv-x="1182" 
d="M878 0c-15.333 49.333 -23 105.333 -23 168h-5c-56 -127.333 -149 -191 -279 -191c-112 0 -191.333 41 -238 123h-4v-496h-163v1420h163v-626c0 -84.667 23 -152 69 -202s106 -75 180 -75c80.667 0 146 28.667 196 86c50.667 56.667 76 133.667 76 231v586h166v-759
c0 -124.667 10.667 -213 32 -265h-170z" />
    <glyph glyph-name="mu1" unicode="&#xb5;" horiz-adv-x="1182" 
d="M878 0c-15.333 49.333 -23 105.333 -23 168h-5c-56 -127.333 -149 -191 -279 -191c-112 0 -191.333 41 -238 123h-4v-496h-163v1420h163v-626c0 -84.667 23 -152 69 -202s106 -75 180 -75c80.667 0 146 28.667 196 86c50.667 56.667 76 133.667 76 231v586h166v-759
c0 -124.667 10.667 -213 32 -265h-170z" />
    <glyph glyph-name="paragraph" unicode="&#xb6;" horiz-adv-x="938" 
d="M834 1331l-128 -0.000976562v-1331h-106v1331h-158v-1331h-108v903c-72 0 -131.667 25.333 -179 76s-71 114.334 -71 191.001c0 78 24.833 141.5 74.5 190.5s110.167 73.5 181.5 73.5h494v-103z" />
    <glyph glyph-name="periodcentered" unicode="&#x2219;" horiz-adv-x="444" 
d="M223 510c-15.333 0 -29.666 3 -42.999 9s-25 14 -35 24s-18 21.833 -24 35.5s-9 28.167 -9 43.5s3 29.833 9 43.5s14 25.667 24 36s21.667 18.5 35 24.5s27.666 9 42.999 9s29.833 -3 43.5 -9s25.667 -14.167 36 -24.5s18.5 -22.333 24.5 -36s9 -28.167 9 -43.5
s-3 -29.833 -9 -43.5s-14.167 -25.5 -24.5 -35.5s-22.333 -18 -36 -24s-28.167 -9 -43.5 -9z" />
    <glyph glyph-name="periodcentered" unicode="&#xb7;" horiz-adv-x="444" 
d="M223 510c-15.333 0 -29.666 3 -42.999 9s-25 14 -35 24s-18 21.833 -24 35.5s-9 28.167 -9 43.5s3 29.833 9 43.5s14 25.667 24 36s21.667 18.5 35 24.5s27.666 9 42.999 9s29.833 -3 43.5 -9s25.667 -14.167 36 -24.5s18.5 -22.333 24.5 -36s9 -28.167 9 -43.5
s-3 -29.833 -9 -43.5s-14.167 -25.5 -24.5 -35.5s-22.333 -18 -36 -24s-28.167 -9 -43.5 -9z" />
    <glyph glyph-name="cedilla" unicode="&#xb8;" horiz-adv-x="420" 
d="M391 -256c0 -117.333 -91.666 -176 -274.999 -176c-25.333 0 -47 0.666992 -65 2v90c28.667 -4 52 -6 70 -6c94 0 141 30 141 90c0 52 -43 78 -129 78c-6.66699 0 -20.334 -1.33301 -41.001 -4v182h108v-104c58.667 0 105.167 -13.333 139.5 -40s51.5 -64 51.5 -112z" />
    <glyph glyph-name="onesuperior" unicode="&#xb9;" horiz-adv-x="719" 
d="M639 884h-504v112h185v594l-193 -55v125l323 96v-760h189v-112z" />
    <glyph glyph-name="ordmasculine" unicode="&#xba;" horiz-adv-x="882" 
d="M436 696c-111.333 0 -198.834 33.5 -262.501 100.5s-95.5 157.833 -95.5 272.5c0 120.667 34.167 215 102.5 283s158.833 102 271.5 102c108.667 0 194.334 -33.167 257.001 -99.5s94 -156.5 94 -270.5c0 -118.667 -33.167 -213 -99.5 -283s-155.5 -105 -267.5 -105z
M443.999 1344c-70.667 0 -126.833 -23.999 -168.5 -71.999s-62.5 -114.333 -62.5 -199c0 -82.667 19.833 -147.334 59.5 -194.001s96.167 -70 169.5 -70c70 0 125.5 23.833 166.5 71.5s61.5 112.5 61.5 194.5c0 84 -20.167 149.833 -60.5 197.5s-95.5 71.5 -165.5 71.5z" />
    <glyph glyph-name="guillemotright" unicode="&#xbb;" horiz-adv-x="1036" 
d="M948 538l-301 -338h-165l302 338l-302 342h165zM559 538l-299 -338h-170l308 338l-308 342h170z" />
    <glyph glyph-name="onequarter" unicode="&#xbc;" horiz-adv-x="1856" 
d="M639 584h-504v112h185v594l-193 -55v125l323 96v-760h189v-112zM1393 1434l-858 -1434h-144l859 1434h143zM1706 205h-110v-204h-132v204h-393v92l369 554h156v-537h110v-109zM1468 725l-4 0.000976562c-8 -20.667 -20.667 -45 -38 -73l-218 -338h256v323
c0 21.333 1.33301 50.666 4 87.999z" />
    <glyph glyph-name="onehalf" unicode="&#xbd;" horiz-adv-x="1906" 
d="M639 584h-504v112h185v594l-193 -55v125l323 96v-760h189v-112zM1393 1434l-858 -1434h-144l859 1434h143zM1748 2h-554.001v114l240 236c69.333 68 113.333 120.167 132 156.5s28 72.833 28 109.5c0 38.667 -12.667 70.167 -38 94.5s-58.666 36.5 -99.999 36.5
c-78.667 0 -150.667 -34 -216 -102v149c56 50.667 134.333 76 235 76c78.667 0 141 -22 187 -66s69 -102 69 -174c0 -102 -68.333 -218 -205 -348l-164 -156v-4h386v-122z" />
    <glyph glyph-name="threequarters" unicode="&#xbe;" horiz-adv-x="1950" 
d="M129 616l0.000976562 142c68.667 -50.667 141 -76 217 -76c53.333 0 95.333 12.5 126 37.5s46 58.833 46 101.5c0 94 -73 141 -219 141h-84v118h80c131.333 0 197 44.667 197 134c0 79.333 -48 119 -144 119c-62.667 0 -124.667 -23 -186 -69v139c58 34 129 51 213 51
c75.333 0 135.333 -19.833 180 -59.5s67 -91.5 67 -155.5c0 -100.667 -48.333 -169 -145 -205v-4c118 -28 177 -95.333 177 -202c0 -78 -28.333 -141.667 -85 -191s-132.334 -74 -227.001 -74c-91.333 0 -162.333 17.667 -213 53zM1464 1434l-858 -1434h-144l859 1434h143z
M1771 205h-110v-204h-132v204h-393v92l369 554h156v-537h110v-109zM1533 725l-4 0.000976562c-8 -20.667 -20.667 -45 -38 -73l-218 -338h256v323c0 21.333 1.33301 50.666 4 87.999z" />
    <glyph glyph-name="questiondown" unicode="&#xbf;" horiz-adv-x="918" 
d="M625 630c6 -17.333 11.335 -39.8301 16.002 -67.4971s7 -55.167 7 -82.5c0 -42.667 -8.5 -81.167 -25.5 -115.5s-38.167 -66.5 -63.5 -96.5s-53 -58.833 -83 -86.5s-57.667 -55.667 -83 -84s-46.5 -58 -63.5 -89s-25.5 -65.167 -25.5 -102.5
c0 -32 6.16699 -60.333 18.5 -85s29.166 -45.334 50.499 -62.001s46 -29.167 74 -37.5s57.667 -12.5 89 -12.5c112.667 0 210.334 44.333 293.001 133v-176c-102 -64 -207.667 -96 -317 -96c-50.667 0 -98.334 6.66699 -143.001 20s-83.667 33.166 -117 59.499
s-59.833 59.166 -79.5 98.499s-29.5 85 -29.5 137c0 49.333 8.66699 93.333 26 132s39.166 74.167 65.499 106.5s54.833 62.5 85.5 90.5s59.167 55.833 85.5 83.5s48.166 56.5 65.499 86.5s26 63 26 99c0 30.667 -3.66699 58.5 -11 83.5s-14.666 46.167 -21.999 63.5h161z
M535.002 1046c29.333 0 55.333 -10.667 78 -32c22 -20.667 33 -46.667 33 -78c0 -30.667 -11 -56.667 -33 -78c-22 -22 -48 -33 -78 -33s-56 11 -78 33c-22 21.333 -33 47.333 -33 78c0 31.333 11 57.333 33 78c22.667 21.333 48.667 32 78 32z" />
    <glyph glyph-name="Agrave" unicode="&#xc0;" horiz-adv-x="1321" 
d="M1298 0h-186l-152 402h-608l-143 -402h-187l550 1434h174zM905 553l-225 611c-7.33301 20 -14.666 52 -21.999 96h-4c-6.66699 -40.667 -14.334 -72.667 -23.001 -96l-223 -611h497zM758 1566h-127l-262 328h168z" />
    <glyph glyph-name="Aacute" unicode="&#xc1;" horiz-adv-x="1321" 
d="M1298 0h-186l-152 402h-608l-143 -402h-187l550 1434h174zM905 553l-225 611c-7.33301 20 -14.666 52 -21.999 96h-4c-6.66699 -40.667 -14.334 -72.667 -23.001 -96l-223 -611h497zM867 1894l-262 -328h-127l223 328h166z" />
    <glyph glyph-name="Acircumflex" unicode="&#xc2;" horiz-adv-x="1321" 
d="M1298 0h-186l-152 402h-608l-143 -402h-187l550 1434h174zM905 553l-225 611c-7.33301 20 -14.666 52 -21.999 96h-4c-6.66699 -40.667 -14.334 -72.667 -23.001 -96l-223 -611h497zM927 1565h-122l-164 230l-165 -230h-113l215 332h133z" />
    <glyph glyph-name="Atilde" unicode="&#xc3;" horiz-adv-x="1321" 
d="M1298 0h-186l-152 402h-608l-143 -402h-187l550 1434h174zM905 553l-225 611c-7.33301 20 -14.666 52 -21.999 96h-4c-6.66699 -40.667 -14.334 -72.667 -23.001 -96l-223 -611h497zM977 1803c0 -70 -16 -127.167 -48 -171.5s-75.333 -66.5 -130 -66.5
c-47.333 0 -101.333 17.333 -162 52c-51.333 28.667 -91 43 -119 43c-58.667 0 -88 -37.667 -88 -113h-94c0 71.333 16 128.5 48 171.5s76.667 64.5 134 64.5c43.333 0 93 -17.333 149 -52c49.333 -29.333 92 -44 128 -44c56 0 84 38.667 84 116h98z" />
    <glyph glyph-name="Adieresis" unicode="&#xc4;" horiz-adv-x="1321" 
d="M1298 0h-186l-152 402h-608l-143 -402h-187l550 1434h174zM905 553l-225 611c-7.33301 20 -14.666 52 -21.999 96h-4c-6.66699 -40.667 -14.334 -72.667 -23.001 -96l-223 -611h497zM840 1565c-26.667 0 -49.668 9.33105 -69.001 27.998s-29 42.334 -29 71.001
c0 28 9.33301 51.333 28 70s41.334 28 68.001 28c28 0 51.667 -9.5 71 -28.5s29 -42.167 29 -69.5s-9.33301 -50.666 -28 -69.999s-42 -29 -70 -29zM455.999 1565c-28 0 -51.833 9.83105 -71.5 29.498s-29.5 42.834 -29.5 69.501c0 28 9.5 51.333 28.5 70s42.167 28 69.5 28
s51 -9.5 71 -28.5s30 -42.167 30 -69.5s-9.66699 -50.666 -29 -69.999s-42.333 -29 -69 -29z" />
    <glyph glyph-name="Aring" unicode="&#xc5;" horiz-adv-x="1321" 
d="M1298 0l-186 -0.000976562l-152 402h-608l-143 -402h-187l529 1378c-67.333 34.667 -101 89.334 -101 164.001c0 59.333 20 107.333 60 144s90.667 55 152 55c58.667 0 106.667 -18.167 144 -54.5s56 -82.5 56 -138.5c0 -74.667 -32 -130 -96 -166zM656 1659
c-33.333 0 -60.667 -10.501 -82 -31.501s-32 -47.5 -32 -79.5c0 -76 38 -114 114 -114c32 0 59 11 81 33s33 49 33 81c0 32.667 -11 59.334 -33 80.001s-49 31 -81 31zM904.999 552.998l-225 611c-7.33301 20 -14.666 52 -21.999 96h-4
c-6.66699 -40.667 -14.334 -72.667 -23.001 -96l-223 -611h497z" />
    <glyph glyph-name="AE" unicode="&#xc6;" horiz-adv-x="1762" 
d="M1667 0h-759v402h-510l-193 -402h-195l700 1434h924v-152h-559v-477h519v-151h-519v-502h592v-152zM908 553v729h-95l-346 -729h441z" />
    <glyph glyph-name="Ccedilla" unicode="&#xc7;" horiz-adv-x="1268" 
d="M1164 60c-106 -56 -238 -83.9971 -396 -83.9971c-204 0 -367.333 65.667 -490 197s-184 303.666 -184 516.999c0 229.333 69 414.666 207 555.999s313 212 525 212c136 0 248.667 -19.667 338 -59v-179c-102.667 57.333 -216 86 -340 86
c-164.667 0 -298.167 -55 -400.5 -165s-153.5 -257 -153.5 -441c0 -174.667 47.833 -313.834 143.5 -417.501s221.167 -155.5 376.5 -155.5c144 0 268.667 32 374 96v-163zM960 -255.997c0 -117.333 -91.666 -176 -274.999 -176c-25.333 0 -47 0.666992 -65 2v90
c28.667 -4 52 -6 70 -6c94 0 141 30 141 90c0 52 -43 78 -129 78c-6.66699 0 -20.334 -1.33301 -41.001 -4v182h108v-104c58.667 0 105.167 -13.333 139.5 -40s51.5 -64 51.5 -112z" />
    <glyph glyph-name="Egrave" unicode="&#xc8;" horiz-adv-x="1036" 
d="M948 0h-760v1434h728v-152h-560v-477h518v-151h-518v-502h592v-152zM703 1566h-127l-262 328h168z" />
    <glyph glyph-name="Eacute" unicode="&#xc9;" horiz-adv-x="1036" 
d="M948 0h-760v1434h728v-152h-560v-477h518v-151h-518v-502h592v-152zM803 1893l-262 -328h-127l223 328h166z" />
    <glyph glyph-name="Ecircumflex" unicode="&#xca;" horiz-adv-x="1036" 
d="M948 0h-760v1434h728v-152h-560v-477h518v-151h-518v-502h592v-152zM827 1567h-122l-164 230l-165 -230h-113l215 332h133z" />
    <glyph glyph-name="Edieresis" unicode="&#xcb;" horiz-adv-x="1036" 
d="M948 0h-760v1434h728v-152h-560v-477h518v-151h-518v-502h592v-152zM749 1566c-26.667 0 -49.668 9.33105 -69.001 27.998s-29 42.334 -29 71.001c0 28 9.33301 51.333 28 70s41.334 28 68.001 28c28 0 51.667 -9.5 71 -28.5s29 -42.167 29 -69.5
s-9.33301 -50.666 -28 -69.999s-42 -29 -70 -29zM364.999 1566c-28 0 -51.833 9.83105 -71.5 29.498s-29.5 42.834 -29.5 69.501c0 28 9.5 51.333 28.5 70s42.167 28 69.5 28s51 -9.5 71 -28.5s30 -42.167 30 -69.5s-9.66699 -50.666 -29 -69.999s-42.333 -29 -69 -29z" />
    <glyph glyph-name="Igrave" unicode="&#xcc;" horiz-adv-x="545" 
d="M496 1434v-144h-140v-1146h140v-144h-448v144h140v1146h-140v144h448zM417 1566h-127l-262 328h168z" />
    <glyph glyph-name="Iacute" unicode="&#xcd;" horiz-adv-x="545" 
d="M496 1434v-144h-140v-1146h140v-144h-448v144h140v1146h-140v144h448zM510 1894l-262 -328h-127l223 328h166z" />
    <glyph glyph-name="Icircumflex" unicode="&#xce;" horiz-adv-x="545" 
d="M496 1434v-144h-140v-1146h140v-144h-448v144h140v1146h-140v144h448zM561 1567h-122l-164 230l-165 -230h-113l215 332h133z" />
    <glyph glyph-name="Idieresis" unicode="&#xcf;" horiz-adv-x="545" 
d="M496 1434v-144h-140v-1146h140v-144h-448v144h140v1146h-140v144h448zM471 1566c-26.667 0 -49.668 9.33105 -69.001 27.998s-29 42.334 -29 71.001c0 28 9.33301 51.333 28 70s41.334 28 68.001 28c28 0 51.667 -9.5 71 -28.5s29 -42.167 29 -69.5
s-9.33301 -50.666 -28 -69.999s-42 -29 -70 -29zM86.999 1566c-28 0 -51.833 9.83105 -71.5 29.498s-29.5 42.834 -29.5 69.501c0 28 9.5 51.333 28.5 70s42.167 28 69.5 28s51 -9.5 71 -28.5s30 -42.167 30 -69.5s-9.66699 -50.666 -29 -69.999s-42.333 -29 -69 -29z" />
    <glyph glyph-name="Eth" unicode="&#xd0;" horiz-adv-x="1436" 
d="M188 0l0.000976562 641h-160v155h160v638h396c505.333 0 758 -233 758 -699c0 -222.667 -70.333 -401 -211 -535c-140.667 -133.333 -328.334 -200 -563.001 -200h-380zM356.001 1282v-486.001h336v-155h-336v-489h214c188 0 334.333 50.333 439 151
s157 243.334 157 428.001c0 367.333 -195.333 551 -586 551h-224z" />
    <glyph glyph-name="Ntilde" unicode="&#xd1;" horiz-adv-x="1532" 
d="M1344 0l-206 0.00195312l-738 1143c-18.667 28.667 -34 58.667 -46 90h-6c5.33301 -30.667 8 -96.334 8 -197.001v-1036h-168v1434h218l718 -1125c30 -46.667 49.333 -78.667 58 -96h4c-6.66699 41.333 -10 111.666 -10 210.999v1010h168v-1434zM1113 1803
c0 -70 -16 -127.167 -48 -171.5s-75.333 -66.5 -130 -66.5c-47.333 0 -101.333 17.333 -162 52c-51.333 28.667 -91 43 -119 43c-58.667 0 -88 -37.667 -88 -113h-94c0 71.333 16 128.5 48 171.5s76.667 64.5 134 64.5c43.333 0 93 -17.333 149 -52
c49.333 -29.333 92 -44 128 -44c56 0 84 38.667 84 116h98z" />
    <glyph glyph-name="Ograve" unicode="&#xd2;" horiz-adv-x="1544" 
d="M766 -24c-203.333 0 -366.168 66.999 -488.501 200.999s-183.5 308.333 -183.5 523c0 230.667 62.333 414.667 187 552s294.334 206 509.001 206c198 0 357.5 -66.667 478.5 -200s181.5 -307.666 181.5 -522.999c0 -234 -62 -419 -186 -555s-290 -204 -498 -204z
M777.998 1306c-150.667 0 -273 -54.3311 -367 -162.998s-141 -251.334 -141 -428.001s45.833 -318.834 137.5 -426.501s211.167 -161.5 358.5 -161.5c157.333 0 281.333 51.333 372 154s136 246.334 136 431.001c0 189.333 -44 335.666 -132 438.999s-209.333 155 -364 155z
M879.998 1566h-127l-262 328h168z" />
    <glyph glyph-name="Oacute" unicode="&#xd3;" horiz-adv-x="1544" 
d="M766 -24c-203.333 0 -366.168 66.999 -488.501 200.999s-183.5 308.333 -183.5 523c0 230.667 62.333 414.667 187 552s294.334 206 509.001 206c198 0 357.5 -66.667 478.5 -200s181.5 -307.666 181.5 -522.999c0 -234 -62 -419 -186 -555s-290 -204 -498 -204z
M777.998 1306c-150.667 0 -273 -54.3311 -367 -162.998s-141 -251.334 -141 -428.001s45.833 -318.834 137.5 -426.501s211.167 -161.5 358.5 -161.5c157.333 0 281.333 51.333 372 154s136 246.334 136 431.001c0 189.333 -44 335.666 -132 438.999s-209.333 155 -364 155z
M1028 1894l-262 -328h-127l223 328h166z" />
    <glyph glyph-name="Ocircumflex" unicode="&#xd4;" horiz-adv-x="1544" 
d="M766 -24c-203.333 0 -366.168 66.999 -488.501 200.999s-183.5 308.333 -183.5 523c0 230.667 62.333 414.667 187 552s294.334 206 509.001 206c198 0 357.5 -66.667 478.5 -200s181.5 -307.666 181.5 -522.999c0 -234 -62 -419 -186 -555s-290 -204 -498 -204z
M777.998 1306c-150.667 0 -273 -54.3311 -367 -162.998s-141 -251.334 -141 -428.001s45.833 -318.834 137.5 -426.501s211.167 -161.5 358.5 -161.5c157.333 0 281.333 51.333 372 154s136 246.334 136 431.001c0 189.333 -44 335.666 -132 438.999s-209.333 155 -364 155z
M1063 1566h-122l-164 230l-165 -230h-113l215 332h133z" />
    <glyph glyph-name="Otilde" unicode="&#xd5;" horiz-adv-x="1544" 
d="M766 -24c-203.333 0 -366.168 66.999 -488.501 200.999s-183.5 308.333 -183.5 523c0 230.667 62.333 414.667 187 552s294.334 206 509.001 206c198 0 357.5 -66.667 478.5 -200s181.5 -307.666 181.5 -522.999c0 -234 -62 -419 -186 -555s-290 -204 -498 -204z
M777.998 1306c-150.667 0 -273 -54.3311 -367 -162.998s-141 -251.334 -141 -428.001s45.833 -318.834 137.5 -426.501s211.167 -161.5 358.5 -161.5c157.333 0 281.333 51.333 372 154s136 246.334 136 431.001c0 189.333 -44 335.666 -132 438.999s-209.333 155 -364 155z
M1103 1802c0 -70 -16 -127.167 -48 -171.5s-75.333 -66.5 -130 -66.5c-47.333 0 -101.333 17.333 -162 52c-51.333 28.667 -91 43 -119 43c-58.667 0 -88 -37.667 -88 -113h-94c0 71.333 16 128.5 48 171.5s76.667 64.5 134 64.5c43.333 0 93 -17.333 149 -52
c49.333 -29.333 92 -44 128 -44c56 0 84 38.667 84 116h98z" />
    <glyph glyph-name="Odieresis" unicode="&#xd6;" horiz-adv-x="1544" 
d="M766 -24c-203.333 0 -366.168 66.999 -488.501 200.999s-183.5 308.333 -183.5 523c0 230.667 62.333 414.667 187 552s294.334 206 509.001 206c198 0 357.5 -66.667 478.5 -200s181.5 -307.666 181.5 -522.999c0 -234 -62 -419 -186 -555s-290 -204 -498 -204z
M777.998 1306c-150.667 0 -273 -54.3311 -367 -162.998s-141 -251.334 -141 -428.001s45.833 -318.834 137.5 -426.501s211.167 -161.5 358.5 -161.5c157.333 0 281.333 51.333 372 154s136 246.334 136 431.001c0 189.333 -44 335.666 -132 438.999s-209.333 155 -364 155z
M967.998 1563c-26.667 0 -49.668 9.33105 -69.001 27.998s-29 42.334 -29 71.001c0 28 9.33301 51.333 28 70s41.334 28 68.001 28c28 0 51.667 -9.5 71 -28.5s29 -42.167 29 -69.5s-9.33301 -50.666 -28 -69.999s-42 -29 -70 -29zM583.997 1563
c-28 0 -51.833 9.83105 -71.5 29.498s-29.5 42.834 -29.5 69.501c0 28 9.5 51.333 28.5 70s42.167 28 69.5 28s51 -9.5 71 -28.5s30 -42.167 30 -69.5s-9.66699 -50.666 -29 -69.999s-42.333 -29 -69 -29z" />
    <glyph glyph-name="multiply" unicode="&#xd7;" horiz-adv-x="1401" 
d="M1134 258l-94 -94l-340 340l-338 -340l-94 94l340 338l-340 340l94 94l338 -340l340 340l94 -94l-340 -340z" />
    <glyph glyph-name="Oslash" unicode="&#xd8;" horiz-adv-x="1544" 
d="M172 -51l-78.001 65.001l158 191c-105.333 130.667 -158 295.667 -158 495c0 228.667 62 412 186 550c124.667 138.667 294.667 208 510 208c156 0 290 -43 402 -129l135 162l78 -63l-139 -166c122.667 -132.667 184 -308.334 184 -527.001c0 -234 -62 -419 -186 -555
s-290 -204 -498 -204c-177.333 0 -324.666 51.667 -441.999 155zM1090 1204c-84 68 -188 101.999 -312 101.999c-151.333 0 -274 -54.667 -368 -164c-93.333 -109.333 -140 -251.666 -140 -426.999c0 -148 32.667 -272.333 98 -373zM431.999 264
c87.333 -91.333 198.667 -137 334 -137c157.333 0 281.333 51.333 372 154s136 246.334 136 431.001c0 173.333 -39 312.666 -117 417.999z" />
    <glyph glyph-name="Ugrave" unicode="&#xd9;" horiz-adv-x="1407" 
d="M1237 580c0 -402.667 -181.667 -604 -545 -604c-348 0 -522 193.667 -522 581v877h168v-866c0 -294 124 -441 372 -441c239.333 0 359 142 359 426v881h168v-854zM830 1566h-127l-262 328h168z" />
    <glyph glyph-name="Uacute" unicode="&#xda;" horiz-adv-x="1407" 
d="M1237 580c0 -402.667 -181.667 -604 -545 -604c-348 0 -522 193.667 -522 581v877h168v-866c0 -294 124 -441 372 -441c239.333 0 359 142 359 426v881h168v-854zM960 1893l-262 -328h-127l223 328h166z" />
    <glyph glyph-name="Ucircumflex" unicode="&#xdb;" horiz-adv-x="1407" 
d="M1237 580c0 -402.667 -181.667 -604 -545 -604c-348 0 -522 193.667 -522 581v877h168v-866c0 -294 124 -441 372 -441c239.333 0 359 142 359 426v881h168v-854zM987 1567h-122l-164 230l-165 -230h-113l215 332h133z" />
    <glyph glyph-name="Udieresis" unicode="&#xdc;" horiz-adv-x="1407" 
d="M1237 580c0 -402.667 -181.667 -604 -545 -604c-348 0 -522 193.667 -522 581v877h168v-866c0 -294 124 -441 372 -441c239.333 0 359 142 359 426v881h168v-854zM895 1567c-26.667 0 -49.668 9.33105 -69.001 27.998s-29 42.334 -29 71.001c0 28 9.33301 51.333 28 70
s41.334 28 68.001 28c28 0 51.667 -9.5 71 -28.5s29 -42.167 29 -69.5s-9.33301 -50.666 -28 -69.999s-42 -29 -70 -29zM510.999 1567c-28 0 -51.833 9.83105 -71.5 29.498s-29.5 42.834 -29.5 69.501c0 28 9.5 51.333 28.5 70s42.167 28 69.5 28s51 -9.5 71 -28.5
s30 -42.167 30 -69.5s-9.66699 -50.666 -29 -69.999s-42.333 -29 -69 -29z" />
    <glyph glyph-name="Yacute" unicode="&#xdd;" horiz-adv-x="1132" 
d="M1120 1434l-473.001 -904v-530h-168v526l-461 908h191l321 -648c4 -8 15.667 -37.333 35 -88h3c6.66699 22.667 19.334 52 38.001 88l336 648h178zM830.999 1894l-262 -328h-127l223 328h166z" />
    <glyph glyph-name="Thorn" unicode="&#xde;" horiz-adv-x="1147" 
d="M356 318v-318.001h-168v1434h168v-226h226c77.333 0 146 -9.5 206 -28.5s110.5 -46.667 151.5 -83s72.167 -81.166 93.5 -134.499s32 -114 32 -182c0 -136 -47.333 -247 -142 -333c-94 -86 -221 -129 -381 -129h-186zM356 1057v-588h176c116 0 204.5 25.833 265.5 77.5
s91.5 126.167 91.5 223.5c0 191.333 -112 287 -336 287h-197z" />
    <glyph glyph-name="germandbls" unicode="&#xdf;" horiz-adv-x="1114" 
d="M461 162c50 -32 106.668 -48.001 170.001 -48.001c73.333 0 132.333 24.333 177 73c45.333 49.333 68 115.333 68 198c0 100 -33.333 181 -100 243c-67.333 63.333 -160 101.333 -278 114v130c77.333 12.667 142 47 194 103c50.667 54.667 76 120.334 76 197.001
c0 72.667 -18.333 128.667 -55 168s-87.334 59 -152.001 59c-154 0 -231 -103 -231 -309v-1090h-164v1114c0 128 36.667 230.667 110 308s172 116 296 116c110 0 198.333 -31.667 265 -95c66 -63.333 99 -147 99 -251c0 -85.333 -25 -161.333 -75 -228
c-50 -67.333 -115 -114 -195 -140v-5c252 -50 378 -192 378 -426c0 -118 -37 -217 -111 -297s-172 -120 -294 -120c-66.667 0 -126 8.66699 -178 26v160z" />
    <glyph glyph-name="agrave" unicode="&#xe0;" horiz-adv-x="1042" 
d="M899 0l-164.001 0.000976562v160h-4c-71.333 -122.667 -176.333 -184 -315 -184c-102 0 -181.833 27 -239.5 81s-86.5 125.667 -86.5 215c0 191.333 112.667 302.666 338 333.999l307 43c0 174 -70.333 261 -211 261c-123.333 0 -234.666 -42 -333.999 -126v168
c100.667 64 216.667 96 348 96c240.667 0 361 -127.333 361 -382v-666zM734.999 518.001l-247 -34c-76 -10.667 -133.333 -29.5 -172 -56.5s-58 -74.833 -58 -143.5c0 -50 17.833 -90.833 53.5 -122.5s83.167 -47.5 142.5 -47.5c81.333 0 148.5 28.5 201.5 85.5
s79.5 129.167 79.5 216.5v102zM673.999 1218h-127l-262 328h168z" />
    <glyph glyph-name="aacute" unicode="&#xe1;" horiz-adv-x="1042" 
d="M899 0l-164.001 0.000976562v160h-4c-71.333 -122.667 -176.333 -184 -315 -184c-102 0 -181.833 27 -239.5 81s-86.5 125.667 -86.5 215c0 191.333 112.667 302.666 338 333.999l307 43c0 174 -70.333 261 -211 261c-123.333 0 -234.666 -42 -333.999 -126v168
c100.667 64 216.667 96 348 96c240.667 0 361 -127.333 361 -382v-666zM734.999 518.001l-247 -34c-76 -10.667 -133.333 -29.5 -172 -56.5s-58 -74.833 -58 -143.5c0 -50 17.833 -90.833 53.5 -122.5s83.167 -47.5 142.5 -47.5c81.333 0 148.5 28.5 201.5 85.5
s79.5 129.167 79.5 216.5v102zM756.999 1546l-262 -328h-127l223 328h166z" />
    <glyph glyph-name="acircumflex" unicode="&#xe2;" horiz-adv-x="1042" 
d="M899 0l-164.001 0.000976562v160h-4c-71.333 -122.667 -176.333 -184 -315 -184c-102 0 -181.833 27 -239.5 81s-86.5 125.667 -86.5 215c0 191.333 112.667 302.666 338 333.999l307 43c0 174 -70.333 261 -211 261c-123.333 0 -234.666 -42 -333.999 -126v168
c100.667 64 216.667 96 348 96c240.667 0 361 -127.333 361 -382v-666zM734.999 518.001l-247 -34c-76 -10.667 -133.333 -29.5 -172 -56.5s-58 -74.833 -58 -143.5c0 -50 17.833 -90.833 53.5 -122.5s83.167 -47.5 142.5 -47.5c81.333 0 148.5 28.5 201.5 85.5
s79.5 129.167 79.5 216.5v102zM805.999 1218h-122l-164 230l-165 -230h-113l215 332h133z" />
    <glyph glyph-name="atilde" unicode="&#xe3;" horiz-adv-x="1042" 
d="M899 0l-164.001 0.000976562v160h-4c-71.333 -122.667 -176.333 -184 -315 -184c-102 0 -181.833 27 -239.5 81s-86.5 125.667 -86.5 215c0 191.333 112.667 302.666 338 333.999l307 43c0 174 -70.333 261 -211 261c-123.333 0 -234.666 -42 -333.999 -126v168
c100.667 64 216.667 96 348 96c240.667 0 361 -127.333 361 -382v-666zM734.999 518.001l-247 -34c-76 -10.667 -133.333 -29.5 -172 -56.5s-58 -74.833 -58 -143.5c0 -50 17.833 -90.833 53.5 -122.5s83.167 -47.5 142.5 -47.5c81.333 0 148.5 28.5 201.5 85.5
s79.5 129.167 79.5 216.5v102zM843.999 1458c0 -70 -16 -127.167 -48 -171.5s-75.333 -66.5 -130 -66.5c-47.333 0 -101.333 17.333 -162 52c-51.333 28.667 -91 43 -119 43c-58.667 0 -88 -37.667 -88 -113h-94c0 71.333 16 128.5 48 171.5s76.667 64.5 134 64.5
c43.333 0 93 -17.333 149 -52c49.333 -29.333 92 -44 128 -44c56 0 84 38.667 84 116h98z" />
    <glyph glyph-name="adieresis" unicode="&#xe4;" horiz-adv-x="1042" 
d="M899 0l-164.001 0.000976562v160h-4c-71.333 -122.667 -176.333 -184 -315 -184c-102 0 -181.833 27 -239.5 81s-86.5 125.667 -86.5 215c0 191.333 112.667 302.666 338 333.999l307 43c0 174 -70.333 261 -211 261c-123.333 0 -234.666 -42 -333.999 -126v168
c100.667 64 216.667 96 348 96c240.667 0 361 -127.333 361 -382v-666zM734.999 518.001l-247 -34c-76 -10.667 -133.333 -29.5 -172 -56.5s-58 -74.833 -58 -143.5c0 -50 17.833 -90.833 53.5 -122.5s83.167 -47.5 142.5 -47.5c81.333 0 148.5 28.5 201.5 85.5
s79.5 129.167 79.5 216.5v102zM707.999 1218c-26.667 0 -49.668 9.33105 -69.001 27.998s-29 42.334 -29 71.001c0 28 9.33301 51.333 28 70s41.334 28 68.001 28c28 0 51.667 -9.5 71 -28.5s29 -42.167 29 -69.5s-9.33301 -50.666 -28 -69.999s-42 -29 -70 -29z
M323.998 1218c-28 0 -51.833 9.83105 -71.5 29.498s-29.5 42.834 -29.5 69.501c0 28 9.5 51.333 28.5 70s42.167 28 69.5 28s51 -9.5 71 -28.5s30 -42.167 30 -69.5s-9.66699 -50.666 -29 -69.999s-42.333 -29 -69 -29z" />
    <glyph glyph-name="aring" unicode="&#xe5;" horiz-adv-x="1042" 
d="M899 0l-164.001 0.000976562v160h-4c-71.333 -122.667 -176.333 -184 -315 -184c-102 0 -181.833 27 -239.5 81s-86.5 125.667 -86.5 215c0 191.333 112.667 302.666 338 333.999l307 43c0 174 -70.333 261 -211 261c-123.333 0 -234.666 -42 -333.999 -126v168
c100.667 64 216.667 96 348 96c240.667 0 361 -127.333 361 -382v-666zM734.999 518.001l-247 -34c-76 -10.667 -133.333 -29.5 -172 -56.5s-58 -74.833 -58 -143.5c0 -50 17.833 -90.833 53.5 -122.5s83.167 -47.5 142.5 -47.5c81.333 0 148.5 28.5 201.5 85.5
s79.5 129.167 79.5 216.5v102zM516.999 1176c-58 0 -106.166 17.5 -144.499 52.5s-57.5 80.833 -57.5 137.5c0 60 19.667 108 59 144s89.333 54 150 54c59.333 0 108 -18 146 -54s57 -82 57 -138s-20.333 -102.667 -61 -140s-90.334 -56 -149.001 -56zM517 1483
c-32 0 -58.667 -10.833 -80 -32.5s-32 -48.5 -32 -80.5c0 -74.667 37.333 -112 112 -112c33.333 0 61 10.667 83 32s33 48 33 80c0 32.667 -11 59.667 -33 81s-49.667 32 -83 32z" />
    <glyph glyph-name="ae" unicode="&#xe6;" horiz-adv-x="1704" 
d="M1622 471h-725c2 -114 32.333 -202 91 -264s139 -93 241 -93c118 0 225 38 321 114v-154c-88 -65.333 -207.333 -98 -358 -98c-180 0 -307.667 76.333 -383 229h-4c-96.667 -152.667 -225.667 -229 -387 -229c-102 0 -182.167 26.833 -240.5 80.5
s-87.5 125.5 -87.5 215.5c0 200 127.667 308 383 324l262 16c0 198.667 -71.667 298 -215 298c-116.667 0 -226.667 -40.667 -330 -122v164c98.667 64 214.667 96 348 96c154.667 0 254.667 -66.667 300 -200h4c77.333 133.333 196 200 356 200
c134.667 0 239 -43.5 313 -130.5s111 -207.833 111 -362.5v-84zM1454 610c-1.33301 96 -24.1689 170.001 -68.502 222.001s-106.166 78 -185.499 78c-77.333 0 -143.666 -27.333 -198.999 -82s-89.333 -127.334 -102 -218.001h555zM734.997 410.001l0.000976562 62.999
l-203 -12c-92.667 -5.33301 -161.834 -21.666 -207.501 -48.999s-68.5 -72.666 -68.5 -135.999c0 -48.667 17.667 -87.834 53 -117.501s83 -44.5 143 -44.5c79.333 0 146.333 28.167 201 84.5s82 126.833 82 211.5z" />
    <glyph glyph-name="ccedilla" unicode="&#xe7;" horiz-adv-x="946" 
d="M864 47c-78.667 -47.333 -172 -71 -280 -71c-146 0 -263.833 47.5 -353.5 142.5s-134.5 218.167 -134.5 369.5c0 168.667 48.333 304.167 145 406.5s225.667 153.5 387 153.5c90 0 169.333 -16.667 238 -50v-168c-76 53.333 -157.333 80 -244 80
c-104.667 0 -190.5 -37.5 -257.5 -112.5s-100.5 -173.5 -100.5 -295.5c0 -120 31.5 -214.667 94.5 -284s147.5 -104 253.5 -104c89.333 0 173.333 29.667 252 89v-156zM778 -256c0 -117.333 -91.666 -176 -274.999 -176c-25.333 0 -47 0.666992 -65 2v90
c28.667 -4 52 -6 70 -6c94 0 141 30 141 90c0 52 -43 78 -129 78c-6.66699 0 -20.334 -1.33301 -41.001 -4v182h108v-104c58.667 0 105.167 -13.333 139.5 -40s51.5 -64 51.5 -112z" />
    <glyph glyph-name="egrave" unicode="&#xe8;" horiz-adv-x="1071" 
d="M989 471l-723.001 0.000976562c2.66699 -114 33.334 -202 92.001 -264s139.334 -93 242.001 -93c115.333 0 221.333 38 318 114v-154c-90 -65.333 -209 -98 -357 -98c-144.667 0 -258.334 46.5 -341.001 139.5s-124 223.833 -124 392.5
c0 159.333 45.167 289.166 135.5 389.499s202.5 150.5 336.5 150.5s237.667 -43.333 311 -130s110 -207 110 -361v-86zM820.999 610.001c-0.666992 94.667 -23.5 168.332 -68.5 220.999s-107.5 79 -187.5 79c-77.333 0 -143 -27.667 -197 -83
s-87.333 -127.666 -100 -216.999h553zM724.999 1218h-127l-262 328h168z" />
    <glyph glyph-name="eacute" unicode="&#xe9;" horiz-adv-x="1071" 
d="M989 471l-723.001 0.000976562c2.66699 -114 33.334 -202 92.001 -264s139.334 -93 242.001 -93c115.333 0 221.333 38 318 114v-154c-90 -65.333 -209 -98 -357 -98c-144.667 0 -258.334 46.5 -341.001 139.5s-124 223.833 -124 392.5
c0 159.333 45.167 289.166 135.5 389.499s202.5 150.5 336.5 150.5s237.667 -43.333 311 -130s110 -207 110 -361v-86zM820.999 610.001c-0.666992 94.667 -23.5 168.332 -68.5 220.999s-107.5 79 -187.5 79c-77.333 0 -143 -27.667 -197 -83
s-87.333 -127.666 -100 -216.999h553zM794.999 1546l-262 -328h-127l223 328h166z" />
    <glyph glyph-name="ecircumflex" unicode="&#xea;" horiz-adv-x="1071" 
d="M989 471l-723.001 0.000976562c2.66699 -114 33.334 -202 92.001 -264s139.334 -93 242.001 -93c115.333 0 221.333 38 318 114v-154c-90 -65.333 -209 -98 -357 -98c-144.667 0 -258.334 46.5 -341.001 139.5s-124 223.833 -124 392.5
c0 159.333 45.167 289.166 135.5 389.499s202.5 150.5 336.5 150.5s237.667 -43.333 311 -130s110 -207 110 -361v-86zM820.999 610.001c-0.666992 94.667 -23.5 168.332 -68.5 220.999s-107.5 79 -187.5 79c-77.333 0 -143 -27.667 -197 -83
s-87.333 -127.666 -100 -216.999h553zM839.999 1218h-122l-164 230l-165 -230h-113l215 332h133z" />
    <glyph glyph-name="edieresis" unicode="&#xeb;" horiz-adv-x="1071" 
d="M989 471l-723.001 0.000976562c2.66699 -114 33.334 -202 92.001 -264s139.334 -93 242.001 -93c115.333 0 221.333 38 318 114v-154c-90 -65.333 -209 -98 -357 -98c-144.667 0 -258.334 46.5 -341.001 139.5s-124 223.833 -124 392.5
c0 159.333 45.167 289.166 135.5 389.499s202.5 150.5 336.5 150.5s237.667 -43.333 311 -130s110 -207 110 -361v-86zM820.999 610.001c-0.666992 94.667 -23.5 168.332 -68.5 220.999s-107.5 79 -187.5 79c-77.333 0 -143 -27.667 -197 -83
s-87.333 -127.666 -100 -216.999h553zM745.999 1218c-26.667 0 -49.668 9.33105 -69.001 27.998s-29 42.334 -29 71.001c0 28 9.33301 51.333 28 70s41.334 28 68.001 28c28 0 51.667 -9.5 71 -28.5s29 -42.167 29 -69.5s-9.33301 -50.666 -28 -69.999s-42 -29 -70 -29z
M361.998 1218c-28 0 -51.833 9.83105 -71.5 29.498s-29.5 42.834 -29.5 69.501c0 28 9.5 51.333 28.5 70s42.167 28 69.5 28s51 -9.5 71 -28.5s30 -42.167 30 -69.5s-9.66699 -50.666 -29 -69.999s-42.333 -29 -69 -29z" />
    <glyph glyph-name="igrave" unicode="&#xec;" horiz-adv-x="496" 
d="M330 0h-164v1024h164v-1024zM370 1218h-127l-262 328h168z" />
    <glyph glyph-name="iacute" unicode="&#xed;" horiz-adv-x="496" 
d="M330 0h-164v1024h164v-1024zM478 1546l-262 -328h-127l223 328h166z" />
    <glyph glyph-name="icircumflex" unicode="&#xee;" horiz-adv-x="496" 
d="M330 0h-164v1024h164v-1024zM522 1218h-122l-164 230l-165 -230h-113l215 332h133z" />
    <glyph glyph-name="idieresis" unicode="&#xef;" horiz-adv-x="496" 
d="M330 0h-164v1024h164v-1024zM430 1218c-26.667 0 -49.668 9.33105 -69.001 27.998s-29 42.334 -29 71.001c0 28 9.33301 51.333 28 70s41.334 28 68.001 28c28 0 51.667 -9.5 71 -28.5s29 -42.167 29 -69.5s-9.33301 -50.666 -28 -69.999s-42 -29 -70 -29zM45.999 1218
c-28 0 -51.833 9.83105 -71.5 29.498s-29.5 42.834 -29.5 69.501c0 28 9.5 51.333 28.5 70s42.167 28 69.5 28s51 -9.5 71 -28.5s30 -42.167 30 -69.5s-9.66699 -50.666 -29 -69.999s-42.333 -29 -69 -29z" />
    <glyph glyph-name="eth" unicode="&#xf0;" horiz-adv-x="1145" 
d="M786 968l3.99902 3.00098c-60 108 -126 196.667 -198 266l-299 -151l-51 98l270 131c-78.667 70 -166.667 137 -264 201h221c50 -34.667 107.333 -80 172 -136l289 144l55 -94l-264 -130c218 -204.667 327 -462.667 327 -774c0 -160 -43 -291.333 -129 -394
s-203 -154 -351 -154s-263.667 46.667 -347 140s-125 220.666 -125 381.999c0 162 43.333 293.5 130 394.5s203.334 151.5 350.001 151.5c82 0 152 -26 210 -78zM581.999 910.001c-98.667 0 -176.333 -36.167 -233 -108.5s-85 -170.833 -85 -295.5
c0 -120.667 27.667 -216.167 83 -286.5s132.333 -105.5 231 -105.5c92.667 0 166.167 36 220.5 108s81.5 168 81.5 288c0 266.667 -99.333 400 -298 400z" />
    <glyph glyph-name="ntilde" unicode="&#xf1;" horiz-adv-x="1159" 
d="M1016 0h-164v584c0 217.333 -79.333 326 -238 326c-82 0 -149.833 -30.833 -203.5 -92.5s-80.5 -139.5 -80.5 -233.5v-584h-164v1024h164v-170h4c77.333 129.333 189.333 194 336 194c112 0 197.667 -36.167 257 -108.5s89 -176.833 89 -313.5v-626zM908 1458
c0 -70 -16 -127.167 -48 -171.5s-75.333 -66.5 -130 -66.5c-47.333 0 -101.333 17.333 -162 52c-51.333 28.667 -91 43 -119 43c-58.667 0 -88 -37.667 -88 -113h-94c0 71.333 16 128.5 48 171.5s76.667 64.5 134 64.5c43.333 0 93 -17.333 149 -52
c49.333 -29.333 92 -44 128 -44c56 0 84 38.667 84 116h98z" />
    <glyph glyph-name="ograve" unicode="&#xf2;" horiz-adv-x="1200" 
d="M594 -24c-151.333 0 -272.169 47.832 -362.502 143.499s-135.5 222.5 -135.5 380.5c0 172 47 306.333 141 403s221 145 381 145c152.667 0 271.834 -47 357.501 -141s128.5 -224.333 128.5 -391c0 -163.333 -46.167 -294.166 -138.5 -392.499
s-216.166 -147.5 -371.499 -147.5zM605.997 909.999c-105.333 0 -188.667 -35.834 -250 -107.501s-92 -170.5 -92 -296.5c0 -121.333 31 -217 93 -287s145 -105 249 -105c106 0 187.5 34.333 244.5 103s85.5 166.334 85.5 293.001c0 128 -28.5 226.667 -85.5 296
s-138.5 104 -244.5 104zM746.996 1218h-127l-262 328h168z" />
    <glyph glyph-name="oacute" unicode="&#xf3;" horiz-adv-x="1200" 
d="M594 -24c-151.333 0 -272.169 47.832 -362.502 143.499s-135.5 222.5 -135.5 380.5c0 172 47 306.333 141 403s221 145 381 145c152.667 0 271.834 -47 357.501 -141s128.5 -224.333 128.5 -391c0 -163.333 -46.167 -294.166 -138.5 -392.499
s-216.166 -147.5 -371.499 -147.5zM605.997 909.999c-105.333 0 -188.667 -35.834 -250 -107.501s-92 -170.5 -92 -296.5c0 -121.333 31 -217 93 -287s145 -105 249 -105c106 0 187.5 34.333 244.5 103s85.5 166.334 85.5 293.001c0 128 -28.5 226.667 -85.5 296
s-138.5 104 -244.5 104zM845.996 1546l-262 -328h-127l223 328h166z" />
    <glyph glyph-name="ocircumflex" unicode="&#xf4;" horiz-adv-x="1200" 
d="M594 -24c-151.333 0 -272.169 47.832 -362.502 143.499s-135.5 222.5 -135.5 380.5c0 172 47 306.333 141 403s221 145 381 145c152.667 0 271.834 -47 357.501 -141s128.5 -224.333 128.5 -391c0 -163.333 -46.167 -294.166 -138.5 -392.499
s-216.166 -147.5 -371.499 -147.5zM605.997 909.999c-105.333 0 -188.667 -35.834 -250 -107.501s-92 -170.5 -92 -296.5c0 -121.333 31 -217 93 -287s145 -105 249 -105c106 0 187.5 34.333 244.5 103s85.5 166.334 85.5 293.001c0 128 -28.5 226.667 -85.5 296
s-138.5 104 -244.5 104zM884.996 1218h-122l-164 230l-165 -230h-113l215 332h133z" />
    <glyph glyph-name="otilde" unicode="&#xf5;" horiz-adv-x="1200" 
d="M594 -24c-151.333 0 -272.169 47.832 -362.502 143.499s-135.5 222.5 -135.5 380.5c0 172 47 306.333 141 403s221 145 381 145c152.667 0 271.834 -47 357.501 -141s128.5 -224.333 128.5 -391c0 -163.333 -46.167 -294.166 -138.5 -392.499
s-216.166 -147.5 -371.499 -147.5zM605.997 909.999c-105.333 0 -188.667 -35.834 -250 -107.501s-92 -170.5 -92 -296.5c0 -121.333 31 -217 93 -287s145 -105 249 -105c106 0 187.5 34.333 244.5 103s85.5 166.334 85.5 293.001c0 128 -28.5 226.667 -85.5 296
s-138.5 104 -244.5 104zM930.996 1458c0 -70 -16 -127.167 -48 -171.5s-75.333 -66.5 -130 -66.5c-47.333 0 -101.333 17.333 -162 52c-51.333 28.667 -91 43 -119 43c-58.667 0 -88 -37.667 -88 -113h-94c0 71.333 16 128.5 48 171.5s76.667 64.5 134 64.5
c43.333 0 93 -17.333 149 -52c49.333 -29.333 92 -44 128 -44c56 0 84 38.667 84 116h98z" />
    <glyph glyph-name="odieresis" unicode="&#xf6;" horiz-adv-x="1200" 
d="M594 -24c-151.333 0 -272.169 47.832 -362.502 143.499s-135.5 222.5 -135.5 380.5c0 172 47 306.333 141 403s221 145 381 145c152.667 0 271.834 -47 357.501 -141s128.5 -224.333 128.5 -391c0 -163.333 -46.167 -294.166 -138.5 -392.499
s-216.166 -147.5 -371.499 -147.5zM605.997 909.999c-105.333 0 -188.667 -35.834 -250 -107.501s-92 -170.5 -92 -296.5c0 -121.333 31 -217 93 -287s145 -105 249 -105c106 0 187.5 34.333 244.5 103s85.5 166.334 85.5 293.001c0 128 -28.5 226.667 -85.5 296
s-138.5 104 -244.5 104zM792.996 1218c-26.667 0 -49.668 9.33105 -69.001 27.998s-29 42.334 -29 71.001c0 28 9.33301 51.333 28 70s41.334 28 68.001 28c28 0 51.667 -9.5 71 -28.5s29 -42.167 29 -69.5s-9.33301 -50.666 -28 -69.999s-42 -29 -70 -29zM408.995 1218
c-28 0 -51.833 9.83105 -71.5 29.498s-29.5 42.834 -29.5 69.501c0 28 9.5 51.333 28.5 70s42.167 28 69.5 28s51 -9.5 71 -28.5s30 -42.167 30 -69.5s-9.66699 -50.666 -29 -69.999s-42.333 -29 -69 -29z" />
    <glyph glyph-name="divide" unicode="&#xf7;" horiz-adv-x="1401" 
d="M708 868c-29.333 0 -54 10.168 -74 30.501s-30 45.166 -30 74.499c0 30 9.66699 55.667 29 77s44.333 32 75 32c68.667 0 103 -35.667 103 -107c0 -31.333 -10.167 -57 -30.5 -77s-44.5 -30 -72.5 -30zM1172 530.001h-940v134h940v-134zM704 112.001
c-29.333 0 -54.333 10 -75 30s-31 44.333 -31 73c0 30 10 56 30 78s45.333 33 76 33c67.333 0 101 -36.333 101 -109c0 -30 -9.66699 -55 -29 -75s-43.333 -30 -72 -30z" />
    <glyph glyph-name="oslash" unicode="&#xf8;" horiz-adv-x="1200" 
d="M1174 1048l-168 -179.999c65.333 -92 98 -207.333 98 -346c0 -168 -46.333 -301 -139 -399s-216.334 -147 -371.001 -147c-128 0 -234 34 -318 102l-145 -160l-82 78l149 164c-68 91.333 -102 204.666 -102 339.999c0 172 47.333 306.333 142 403s222 145 382 145
c122.667 0 225.334 -32.667 308.001 -98l162 176zM821 836.001c-52.667 49.333 -124.333 74 -215 74c-106 0 -189.5 -35.833 -250.5 -107.5s-91.5 -170.5 -91.5 -296.5c0 -88 16.667 -162.667 50 -224zM891.001 742.001l-508 -552c58 -50.667 131.667 -76 221 -76
c108.667 0 191.5 34.667 248.5 104s85.5 167.333 85.5 294c0 89.333 -15.667 166 -47 230z" />
    <glyph glyph-name="ugrave" unicode="&#xf9;" horiz-adv-x="1159" 
d="M994 0h-164v162h-4c-68 -124 -173.333 -186 -316 -186c-244 0 -366 145.333 -366 436v612h163v-586c0 -216 82.667 -324 248 -324c80 0 145.833 29.5 197.5 88.5s77.5 136.167 77.5 231.5v590h164v-1024zM705 1218h-127l-262 328h168z" />
    <glyph glyph-name="uacute" unicode="&#xfa;" horiz-adv-x="1159" 
d="M994 0h-164v162h-4c-68 -124 -173.333 -186 -316 -186c-244 0 -366 145.333 -366 436v612h163v-586c0 -216 82.667 -324 248 -324c80 0 145.833 29.5 197.5 88.5s77.5 136.167 77.5 231.5v590h164v-1024zM840 1546l-262 -328h-127l223 328h166z" />
    <glyph glyph-name="ucircumflex" unicode="&#xfb;" horiz-adv-x="1159" 
d="M994 0h-164v162h-4c-68 -124 -173.333 -186 -316 -186c-244 0 -366 145.333 -366 436v612h163v-586c0 -216 82.667 -324 248 -324c80 0 145.833 29.5 197.5 88.5s77.5 136.167 77.5 231.5v590h164v-1024zM854 1218h-122l-164 230l-165 -230h-113l215 332h133z" />
    <glyph glyph-name="udieresis" unicode="&#xfc;" horiz-adv-x="1159" 
d="M994 0h-164v162h-4c-68 -124 -173.333 -186 -316 -186c-244 0 -366 145.333 -366 436v612h163v-586c0 -216 82.667 -324 248 -324c80 0 145.833 29.5 197.5 88.5s77.5 136.167 77.5 231.5v590h164v-1024zM770 1218c-26.667 0 -49.668 9.33105 -69.001 27.998
s-29 42.334 -29 71.001c0 28 9.33301 51.333 28 70s41.334 28 68.001 28c28 0 51.667 -9.5 71 -28.5s29 -42.167 29 -69.5s-9.33301 -50.666 -28 -69.999s-42 -29 -70 -29zM385.999 1218c-28 0 -51.833 9.83105 -71.5 29.498s-29.5 42.834 -29.5 69.501
c0 28 9.5 51.333 28.5 70s42.167 28 69.5 28s51 -9.5 71 -28.5s30 -42.167 30 -69.5s-9.66699 -50.666 -29 -69.999s-42.333 -29 -69 -29z" />
    <glyph glyph-name="yacute" unicode="&#xfd;" horiz-adv-x="991" 
d="M981 1024l-470.998 -1188c-84 -212 -202 -318 -354 -318c-42.667 0 -78.334 4.33301 -107.001 13v147c35.333 -12 67.666 -18 96.999 -18c82.667 0 144.667 49.333 186 148l82 194l-400 1022h182l277 -788c3.33301 -10 10.333 -36 21 -78h6c3.33301 16 10 41.333 20 76
l291 790h170zM762.002 1546l-262 -328h-127l223 328h166z" />
    <glyph glyph-name="thorn" unicode="&#xfe;" horiz-adv-x="1204" 
d="M334 148h-4v-619h-164v1987h164v-672h4c80.667 136 198.667 204 354 204c132 0 235 -45.833 309 -137.5s111 -214.5 111 -368.5c0 -171.333 -41.667 -308.5 -125 -411.5s-197.333 -154.5 -342 -154.5c-132.667 0 -235 57.333 -307 172zM330 561l0.000976562 -143
c0 -84.667 27.5 -156.5 82.5 -215.5s124.833 -88.5 209.5 -88.5c99.333 0 177.166 38 233.499 114s84.5 181.667 84.5 317c0 114 -26.333 203.333 -79 268s-124 97 -214 97c-95.333 0 -172 -33.167 -230 -99.5s-87 -149.5 -87 -249.5z" />
    <glyph glyph-name="ydieresis" unicode="&#xff;" horiz-adv-x="991" 
d="M981 1024l-470.998 -1188c-84 -212 -202 -318 -354 -318c-42.667 0 -78.334 4.33301 -107.001 13v147c35.333 -12 67.666 -18 96.999 -18c82.667 0 144.667 49.333 186 148l82 194l-400 1022h182l277 -788c3.33301 -10 10.333 -36 21 -78h6c3.33301 16 10 41.333 20 76
l291 790h170zM689.002 1218c-26.667 0 -49.668 9.33105 -69.001 27.998s-29 42.334 -29 71.001c0 28 9.33301 51.333 28 70s41.334 28 68.001 28c28 0 51.667 -9.5 71 -28.5s29 -42.167 29 -69.5s-9.33301 -50.666 -28 -69.999s-42 -29 -70 -29zM305.001 1218
c-28 0 -51.833 9.83105 -71.5 29.498s-29.5 42.834 -29.5 69.501c0 28 9.5 51.333 28.5 70s42.167 28 69.5 28s51 -9.5 71 -28.5s30 -42.167 30 -69.5s-9.66699 -50.666 -29 -69.999s-42.333 -29 -69 -29z" />
    <glyph glyph-name="Amacron" unicode="&#x100;" horiz-adv-x="1321" 
d="M1298 0h-186l-152 402h-608l-143 -402h-187l550 1434h174zM905 553l-225 611c-7.33301 20 -14.666 52 -21.999 96h-4c-6.66699 -40.667 -14.334 -72.667 -23.001 -96l-223 -611h497zM912 1567h-508v109h508v-109z" />
    <glyph glyph-name="amacron" unicode="&#x101;" horiz-adv-x="1042" 
d="M899 0l-164.001 0.000976562v160h-4c-71.333 -122.667 -176.333 -184 -315 -184c-102 0 -181.833 27 -239.5 81s-86.5 125.667 -86.5 215c0 191.333 112.667 302.666 338 333.999l307 43c0 174 -70.333 261 -211 261c-123.333 0 -234.666 -42 -333.999 -126v168
c100.667 64 216.667 96 348 96c240.667 0 361 -127.333 361 -382v-666zM734.999 518.001l-247 -34c-76 -10.667 -133.333 -29.5 -172 -56.5s-58 -74.833 -58 -143.5c0 -50 17.833 -90.833 53.5 -122.5s83.167 -47.5 142.5 -47.5c81.333 0 148.5 28.5 201.5 85.5
s79.5 129.167 79.5 216.5v102zM799.999 1218h-508v109h508v-109z" />
    <glyph glyph-name="Abreve" unicode="&#x102;" horiz-adv-x="1321" 
d="M1298 0h-186l-152 402h-608l-143 -402h-187l550 1434h174zM905 553l-225 611c-7.33301 20 -14.666 52 -21.999 96h-4c-6.66699 -40.667 -14.334 -72.667 -23.001 -96l-223 -611h497zM932 1819c-6.66699 -75.333 -36.167 -136.167 -88.5 -182.5
s-115.833 -69.5 -190.5 -69.5c-78 0 -141.667 23 -191 69s-75.666 107 -78.999 183h100c8 -103.333 65.333 -155 172 -155c45.333 0 84.166 14 116.499 42s51.833 65.667 58.5 113h102z" />
    <glyph glyph-name="abreve" unicode="&#x103;" horiz-adv-x="1042" 
d="M899 0l-164.001 0.000976562v160h-4c-71.333 -122.667 -176.333 -184 -315 -184c-102 0 -181.833 27 -239.5 81s-86.5 125.667 -86.5 215c0 191.333 112.667 302.666 338 333.999l307 43c0 174 -70.333 261 -211 261c-123.333 0 -234.666 -42 -333.999 -126v168
c100.667 64 216.667 96 348 96c240.667 0 361 -127.333 361 -382v-666zM734.999 518.001l-247 -34c-76 -10.667 -133.333 -29.5 -172 -56.5s-58 -74.833 -58 -143.5c0 -50 17.833 -90.833 53.5 -122.5s83.167 -47.5 142.5 -47.5c81.333 0 148.5 28.5 201.5 85.5
s79.5 129.167 79.5 216.5v102zM804.999 1470c-6.66699 -75.333 -36.167 -136.167 -88.5 -182.5s-115.833 -69.5 -190.5 -69.5c-78 0 -141.667 23 -191 69s-75.666 107 -78.999 183h100c8 -103.333 65.333 -155 172 -155c45.333 0 84.166 14 116.499 42
s51.833 65.667 58.5 113h102z" />
    <glyph glyph-name="Aogonek" unicode="&#x104;" horiz-adv-x="1321" 
d="M1298 0h-186l-152 402h-608l-143 -402h-187l550 1434h174zM905 553l-225 611c-7.33301 20 -14.666 52 -21.999 96h-4c-6.66699 -40.667 -14.334 -72.667 -23.001 -96l-223 -611h497zM1227 0c-100 -94 -149.999 -168.333 -149.999 -223c0 -46.667 22.667 -70 68 -70
c20 0 38.667 4.33301 56 13v-107c-20 -8.66699 -47.333 -13 -82 -13c-50.667 0 -91.334 13.333 -122.001 40s-46 63.334 -46 110.001c0 81.333 52.333 164.666 157 249.999h119z" />
    <glyph glyph-name="aogonek" unicode="&#x105;" horiz-adv-x="1042" 
d="M899 0l-164.001 0.000976562v160h-4c-71.333 -122.667 -176.333 -184 -315 -184c-102 0 -181.833 27 -239.5 81s-86.5 125.667 -86.5 215c0 191.333 112.667 302.666 338 333.999l307 43c0 174 -70.333 261 -211 261c-123.333 0 -234.666 -42 -333.999 -126v168
c100.667 64 216.667 96 348 96c240.667 0 361 -127.333 361 -382v-666zM734.999 518.001l-247 -34c-76 -10.667 -133.333 -29.5 -172 -56.5s-58 -74.833 -58 -143.5c0 -50 17.833 -90.833 53.5 -122.5s83.167 -47.5 142.5 -47.5c81.333 0 148.5 28.5 201.5 85.5
s79.5 129.167 79.5 216.5v102zM849.999 0.000976562c-100 -94 -149.999 -168.333 -149.999 -223c0 -46.667 22.667 -70 68 -70c20 0 38.667 4.33301 56 13v-107c-20 -8.66699 -47.333 -13 -82 -13c-50.667 0 -91.334 13.333 -122.001 40s-46 63.334 -46 110.001
c0 81.333 52.333 164.666 157 249.999h119z" />
    <glyph glyph-name="Cacute" unicode="&#x106;" horiz-adv-x="1268" 
d="M1164 60c-106 -56 -238 -83.9971 -396 -83.9971c-204 0 -367.333 65.667 -490 197s-184 303.666 -184 516.999c0 229.333 69 414.666 207 555.999s313 212 525 212c136 0 248.667 -19.667 338 -59v-179c-102.667 57.333 -216 86 -340 86
c-164.667 0 -298.167 -55 -400.5 -165s-153.5 -257 -153.5 -441c0 -174.667 47.833 -313.834 143.5 -417.501s221.167 -155.5 376.5 -155.5c144 0 268.667 32 374 96v-163zM993 1894l-262 -328h-127l223 328h166z" />
    <glyph glyph-name="cacute" unicode="&#x107;" horiz-adv-x="946" 
d="M864 47c-78.667 -47.333 -172 -71 -280 -71c-146 0 -263.833 47.5 -353.5 142.5s-134.5 218.167 -134.5 369.5c0 168.667 48.333 304.167 145 406.5s225.667 153.5 387 153.5c90 0 169.333 -16.667 238 -50v-168c-76 53.333 -157.333 80 -244 80
c-104.667 0 -190.5 -37.5 -257.5 -112.5s-100.5 -173.5 -100.5 -295.5c0 -120 31.5 -214.667 94.5 -284s147.5 -104 253.5 -104c89.333 0 173.333 29.667 252 89v-156zM815 1546l-262 -328h-127l223 328h166z" />
    <glyph glyph-name="Ccircumflex" unicode="&#x108;" horiz-adv-x="1268" 
d="M1164 60c-106 -56 -238 -83.9971 -396 -83.9971c-204 0 -367.333 65.667 -490 197s-184 303.666 -184 516.999c0 229.333 69 414.666 207 555.999s313 212 525 212c136 0 248.667 -19.667 338 -59v-179c-102.667 57.333 -216 86 -340 86
c-164.667 0 -298.167 -55 -400.5 -165s-153.5 -257 -153.5 -441c0 -174.667 47.833 -313.834 143.5 -417.501s221.167 -155.5 376.5 -155.5c144 0 268.667 32 374 96v-163zM1047 1568h-122l-164 230l-165 -230h-113l215 332h133z" />
    <glyph glyph-name="ccircumflex" unicode="&#x109;" horiz-adv-x="946" 
d="M864 47c-78.667 -47.333 -172 -71 -280 -71c-146 0 -263.833 47.5 -353.5 142.5s-134.5 218.167 -134.5 369.5c0 168.667 48.333 304.167 145 406.5s225.667 153.5 387 153.5c90 0 169.333 -16.667 238 -50v-168c-76 53.333 -157.333 80 -244 80
c-104.667 0 -190.5 -37.5 -257.5 -112.5s-100.5 -173.5 -100.5 -295.5c0 -120 31.5 -214.667 94.5 -284s147.5 -104 253.5 -104c89.333 0 173.333 29.667 252 89v-156zM840 1218h-122l-164 230l-165 -230h-113l215 332h133z" />
    <glyph glyph-name="Cdotaccent" unicode="&#x10a;" horiz-adv-x="1268" 
d="M1164 60c-106 -56 -238 -83.9971 -396 -83.9971c-204 0 -367.333 65.667 -490 197s-184 303.666 -184 516.999c0 229.333 69 414.666 207 555.999s313 212 525 212c136 0 248.667 -19.667 338 -59v-179c-102.667 57.333 -216 86 -340 86
c-164.667 0 -298.167 -55 -400.5 -165s-153.5 -257 -153.5 -441c0 -174.667 47.833 -313.834 143.5 -417.501s221.167 -155.5 376.5 -155.5c144 0 268.667 32 374 96v-163zM768 1567c-26.667 0 -49.832 9.49707 -69.499 28.4971s-29.5 42.5 -29.5 70.5
c0 26.667 9.66699 49.334 29 68.001s42.666 28 69.999 28s50.5 -9.16699 69.5 -27.5s28.5 -41.166 28.5 -68.499s-9.5 -50.666 -28.5 -69.999s-42.167 -29 -69.5 -29z" />
    <glyph glyph-name="cdotaccent" unicode="&#x10b;" horiz-adv-x="946" 
d="M864 47c-78.667 -47.333 -172 -71 -280 -71c-146 0 -263.833 47.5 -353.5 142.5s-134.5 218.167 -134.5 369.5c0 168.667 48.333 304.167 145 406.5s225.667 153.5 387 153.5c90 0 169.333 -16.667 238 -50v-168c-76 53.333 -157.333 80 -244 80
c-104.667 0 -190.5 -37.5 -257.5 -112.5s-100.5 -173.5 -100.5 -295.5c0 -120 31.5 -214.667 94.5 -284s147.5 -104 253.5 -104c89.333 0 173.333 29.667 252 89v-156zM595 1218c-26.667 0 -49.832 9.49707 -69.499 28.4971s-29.5 42.5 -29.5 70.5
c0 26.667 9.66699 49.334 29 68.001s42.666 28 69.999 28s50.5 -9.16699 69.5 -27.5s28.5 -41.166 28.5 -68.499s-9.5 -50.666 -28.5 -69.999s-42.167 -29 -69.5 -29z" />
    <glyph glyph-name="Ccaron" unicode="&#x10c;" horiz-adv-x="1268" 
d="M1164 60c-106 -56 -238 -83.9971 -396 -83.9971c-204 0 -367.333 65.667 -490 197s-184 303.666 -184 516.999c0 229.333 69 414.666 207 555.999s313 212 525 212c136 0 248.667 -19.667 338 -59v-179c-102.667 57.333 -216 86 -340 86
c-164.667 0 -298.167 -55 -400.5 -165s-153.5 -257 -153.5 -441c0 -174.667 47.833 -313.834 143.5 -417.501s221.167 -155.5 376.5 -155.5c144 0 268.667 32 374 96v-163zM1054 1896l-214 -330h-132l-216 330h115l164 -229l164 229h119z" />
    <glyph glyph-name="ccaron" unicode="&#x10d;" horiz-adv-x="946" 
d="M864 47c-78.667 -47.333 -172 -71 -280 -71c-146 0 -263.833 47.5 -353.5 142.5s-134.5 218.167 -134.5 369.5c0 168.667 48.333 304.167 145 406.5s225.667 153.5 387 153.5c90 0 169.333 -16.667 238 -50v-168c-76 53.333 -157.333 80 -244 80
c-104.667 0 -190.5 -37.5 -257.5 -112.5s-100.5 -173.5 -100.5 -295.5c0 -120 31.5 -214.667 94.5 -284s147.5 -104 253.5 -104c89.333 0 173.333 29.667 252 89v-156zM858 1548l-214 -330h-132l-216 330h115l164 -229l164 229h119z" />
    <glyph glyph-name="Dcaron" unicode="&#x10e;" horiz-adv-x="1436" 
d="M188 0l-0.000976562 1434h396c505.333 0 758 -233 758 -699c0 -221.333 -70.167 -399.166 -210.5 -533.499s-328.166 -201.5 -563.499 -201.5h-380zM355.999 1282v-1130h214c188 0 334.333 50.333 439 151s157 243.334 157 428.001c0 367.333 -195.333 551 -586 551h-224
zM961.999 1896l-214 -330h-132l-216 330h115l164 -229l164 229h119z" />
    <glyph glyph-name="dcaron" unicode="&#x10f;" horiz-adv-x="1381" 
d="M1040 0h-164v174h-4c-76 -132 -193.333 -198 -352 -198c-128.667 0 -231.5 45.833 -308.5 137.5s-115.5 216.5 -115.5 374.5c0 169.333 42.667 305 128 407s199 153 341 153c140.667 0 243 -55.333 307 -166h4v634h164v-1516zM876 463v150.999
c0 82.667 -27.333 152.667 -82 210s-124 86 -208 86c-100 0 -178.667 -36.667 -236 -110s-86 -174.666 -86 -303.999c0 -118 27.5 -211.167 82.5 -279.5s128.833 -102.5 221.5 -102.5c91.333 0 165.5 33 222.5 99s85.5 149.333 85.5 250zM1459 1516l-166 -260h-123l117 260
h172z" />
    <glyph glyph-name="Dcroat" unicode="&#x110;" horiz-adv-x="1436" 
d="M188 0l0.000976562 641h-160v155h160v638h396c505.333 0 758 -233 758 -699c0 -222.667 -70.333 -401 -211 -535c-140.667 -133.333 -328.334 -200 -563.001 -200h-380zM356.001 1282v-486.001h336v-155h-336v-489h214c188 0 334.333 50.333 439 151
s157 243.334 157 428.001c0 367.333 -195.333 551 -586 551h-224z" />
    <glyph glyph-name="dcroat" unicode="&#x111;" horiz-adv-x="1206" 
d="M1040 0h-164v174h-4c-76 -132 -193.333 -198 -352 -198c-128.667 0 -231.5 45.833 -308.5 137.5s-115.5 216.5 -115.5 374.5c0 169.333 42.667 305 128 407s199 153 341 153c138.667 0 241 -55.333 307 -166h4v320h-331v134h331v180h164v-180h136v-134h-136v-1202z
M876 463v150.999c0 82.667 -27.333 152.667 -82 210s-124 86 -208 86c-100 0 -178.667 -36.667 -236 -110s-86 -174.666 -86 -303.999c0 -118 27.5 -211.167 82.5 -279.5s128.833 -102.5 221.5 -102.5c90.667 0 164.667 33 222 99s86 149.333 86 250z" />
    <glyph glyph-name="Emacron" unicode="&#x112;" horiz-adv-x="1036" 
d="M948 0h-760v1434h728v-152h-560v-477h518v-151h-518v-502h592v-152zM824 1566h-508v109h508v-109z" />
    <glyph glyph-name="emacron" unicode="&#x113;" horiz-adv-x="1071" 
d="M989 471l-723.001 0.000976562c2.66699 -114 33.334 -202 92.001 -264s139.334 -93 242.001 -93c115.333 0 221.333 38 318 114v-154c-90 -65.333 -209 -98 -357 -98c-144.667 0 -258.334 46.5 -341.001 139.5s-124 223.833 -124 392.5
c0 159.333 45.167 289.166 135.5 389.499s202.5 150.5 336.5 150.5s237.667 -43.333 311 -130s110 -207 110 -361v-86zM820.999 610.001c-0.666992 94.667 -23.5 168.332 -68.5 220.999s-107.5 79 -187.5 79c-77.333 0 -143 -27.667 -197 -83
s-87.333 -127.666 -100 -216.999h553zM819.999 1218h-508v109h508v-109z" />
    <glyph glyph-name="Ebreve" unicode="&#x114;" horiz-adv-x="1036" 
d="M948 0h-760v1434h728v-152h-560v-477h518v-151h-518v-502h592v-152zM829 1820c-6.66699 -75.333 -36.167 -136.167 -88.5 -182.5s-115.833 -69.5 -190.5 -69.5c-78 0 -141.667 23 -191 69s-75.666 107 -78.999 183h100c8 -103.333 65.333 -155 172 -155
c45.333 0 84.166 14 116.499 42s51.833 65.667 58.5 113h102z" />
    <glyph glyph-name="ebreve" unicode="&#x115;" horiz-adv-x="1071" 
d="M989 471l-723.001 0.000976562c2.66699 -114 33.334 -202 92.001 -264s139.334 -93 242.001 -93c115.333 0 221.333 38 318 114v-154c-90 -65.333 -209 -98 -357 -98c-144.667 0 -258.334 46.5 -341.001 139.5s-124 223.833 -124 392.5
c0 159.333 45.167 289.166 135.5 389.499s202.5 150.5 336.5 150.5s237.667 -43.333 311 -130s110 -207 110 -361v-86zM820.999 610.001c-0.666992 94.667 -23.5 168.332 -68.5 220.999s-107.5 79 -187.5 79c-77.333 0 -143 -27.667 -197 -83
s-87.333 -127.666 -100 -216.999h553zM830.999 1470c-6.66699 -75.333 -36.167 -136.167 -88.5 -182.5s-115.833 -69.5 -190.5 -69.5c-78 0 -141.667 23 -191 69s-75.666 107 -78.999 183h100c8 -103.333 65.333 -155 172 -155c45.333 0 84.166 14 116.499 42
s51.833 65.667 58.5 113h102z" />
    <glyph glyph-name="Edotaccent" unicode="&#x116;" horiz-adv-x="1036" 
d="M948 0h-760v1434h728v-152h-560v-477h518v-151h-518v-502h592v-152zM550 1567c-26.667 0 -49.832 9.49707 -69.499 28.4971s-29.5 42.5 -29.5 70.5c0 26.667 9.66699 49.334 29 68.001s42.666 28 69.999 28s50.5 -9.16699 69.5 -27.5s28.5 -41.166 28.5 -68.499
s-9.5 -50.666 -28.5 -69.999s-42.167 -29 -69.5 -29z" />
    <glyph glyph-name="edotaccent" unicode="&#x117;" horiz-adv-x="1071" 
d="M989 471l-723.001 0.000976562c2.66699 -114 33.334 -202 92.001 -264s139.334 -93 242.001 -93c115.333 0 221.333 38 318 114v-154c-90 -65.333 -209 -98 -357 -98c-144.667 0 -258.334 46.5 -341.001 139.5s-124 223.833 -124 392.5
c0 159.333 45.167 289.166 135.5 389.499s202.5 150.5 336.5 150.5s237.667 -43.333 311 -130s110 -207 110 -361v-86zM820.999 610.001c-0.666992 94.667 -23.5 168.332 -68.5 220.999s-107.5 79 -187.5 79c-77.333 0 -143 -27.667 -197 -83
s-87.333 -127.666 -100 -216.999h553zM575.999 1218c-26.667 0 -49.832 9.49707 -69.499 28.4971s-29.5 42.5 -29.5 70.5c0 26.667 9.66699 49.334 29 68.001s42.666 28 69.999 28s50.5 -9.16699 69.5 -27.5s28.5 -41.166 28.5 -68.499s-9.5 -50.666 -28.5 -69.999
s-42.167 -29 -69.5 -29z" />
    <glyph glyph-name="Eogonek" unicode="&#x118;" horiz-adv-x="1036" 
d="M948 0h-760v1434h728v-152h-560v-477h518v-151h-518v-502h592v-152zM865 0c-100 -94 -149.999 -168.333 -149.999 -223c0 -46.667 22.667 -70 68 -70c20 0 38.667 4.33301 56 13v-107c-20 -8.66699 -47.333 -13 -82 -13c-50.667 0 -91.334 13.333 -122.001 40
s-46 63.334 -46 110.001c0 81.333 52.333 164.666 157 249.999h119z" />
    <glyph glyph-name="eogonek" unicode="&#x119;" horiz-adv-x="1071" 
d="M989 471l-723.001 0.000976562c2.66699 -114 33.334 -202 92.001 -264s139.334 -93 242.001 -93c115.333 0 221.333 38 318 114v-154c-90 -65.333 -209 -98 -357 -98c-144.667 0 -258.334 46.5 -341.001 139.5s-124 223.833 -124 392.5
c0 159.333 45.167 289.166 135.5 389.499s202.5 150.5 336.5 150.5s237.667 -43.333 311 -130s110 -207 110 -361v-86zM820.999 610.001c-0.666992 94.667 -23.5 168.332 -68.5 220.999s-107.5 79 -187.5 79c-77.333 0 -143 -27.667 -197 -83
s-87.333 -127.666 -100 -216.999h553zM754.999 -0.000976562c-100 -94 -149.999 -168.333 -149.999 -223c0 -46.667 22.667 -70 68 -70c20 0 38.667 4.33301 56 13v-107c-20 -8.66699 -47.333 -13 -82 -13c-50.667 0 -91.334 13.333 -122.001 40s-46 63.334 -46 110.001
c0 81.333 52.333 164.666 157 249.999h119z" />
    <glyph glyph-name="Ecaron" unicode="&#x11a;" horiz-adv-x="1036" 
d="M948 0h-760v1434h728v-152h-560v-477h518v-151h-518v-502h592v-152zM841 1896l-214 -330h-132l-216 330h115l164 -229l164 229h119z" />
    <glyph glyph-name="ecaron" unicode="&#x11b;" horiz-adv-x="1071" 
d="M989 471l-723.001 0.000976562c2.66699 -114 33.334 -202 92.001 -264s139.334 -93 242.001 -93c115.333 0 221.333 38 318 114v-154c-90 -65.333 -209 -98 -357 -98c-144.667 0 -258.334 46.5 -341.001 139.5s-124 223.833 -124 392.5
c0 159.333 45.167 289.166 135.5 389.499s202.5 150.5 336.5 150.5s237.667 -43.333 311 -130s110 -207 110 -361v-86zM820.999 610.001c-0.666992 94.667 -23.5 168.332 -68.5 220.999s-107.5 79 -187.5 79c-77.333 0 -143 -27.667 -197 -83
s-87.333 -127.666 -100 -216.999h553zM843.999 1548l-214 -330h-132l-216 330h115l164 -229l164 229h119z" />
    <glyph glyph-name="Gcircumflex" unicode="&#x11c;" horiz-adv-x="1405" 
d="M1260 98c-144 -81.333 -303.997 -122 -479.997 -122c-204.667 0 -370.167 66 -496.5 198s-189.5 306.667 -189.5 524c0 222 70.167 404.167 210.5 546.5s318.166 213.5 533.499 213.5c156 0 287 -25.333 393 -76v-186c-116 73.333 -253.333 110 -412 110
c-160.667 0 -292.334 -55.333 -395.001 -166s-154 -254 -154 -430c0 -181.333 47.667 -323.833 143 -427.5s224.666 -155.5 387.999 -155.5c112 0 209 22.333 291 67v402h-314v152h482v-650zM1061 1568h-122l-164 230l-165 -230h-113l215 332h133z" />
    <glyph glyph-name="gcircumflex" unicode="&#x11d;" horiz-adv-x="1206" 
d="M1040 82c0 -376 -179.999 -564 -539.999 -564c-126.667 0 -237.334 24 -332.001 72v164c115.333 -64 225.333 -96 330 -96c252 0 378 134 378 402v112h-4c-78 -130.667 -195.333 -196 -352 -196c-127.333 0 -229.833 45.5 -307.5 136.5s-116.5 213.167 -116.5 366.5
c0 174 41.833 312.333 125.5 415s198.167 154 343.5 154c138 0 240.333 -55.333 307 -166h4v142h164v-942zM876.001 463l-0.000976562 151.001c0 81.333 -27.5 151 -82.5 209s-123.5 87 -205.5 87c-101.333 0 -180.666 -36.833 -237.999 -110.5s-86 -176.834 -86 -309.501
c0 -114 27.5 -205.167 82.5 -273.5s127.833 -102.5 218.5 -102.5c92 0 166.833 32.667 224.5 98s86.5 149 86.5 251zM865 1218h-122l-164 230l-165 -230h-113l215 332h133z" />
    <glyph glyph-name="Gbreve" unicode="&#x11e;" horiz-adv-x="1405" 
d="M1260 98c-144 -81.333 -303.997 -122 -479.997 -122c-204.667 0 -370.167 66 -496.5 198s-189.5 306.667 -189.5 524c0 222 70.167 404.167 210.5 546.5s318.166 213.5 533.499 213.5c156 0 287 -25.333 393 -76v-186c-116 73.333 -253.333 110 -412 110
c-160.667 0 -292.334 -55.333 -395.001 -166s-154 -254 -154 -430c0 -181.333 47.667 -323.833 143 -427.5s224.666 -155.5 387.999 -155.5c112 0 209 22.333 291 67v402h-314v152h482v-650zM1068 1817c-6.66699 -75.333 -36.167 -136.167 -88.5 -182.5
s-115.833 -69.5 -190.5 -69.5c-78 0 -141.667 23 -191 69s-75.666 107 -78.999 183h100c8 -103.333 65.333 -155 172 -155c45.333 0 84.166 14 116.499 42s51.833 65.667 58.5 113h102z" />
    <glyph glyph-name="gbreve" unicode="&#x11f;" horiz-adv-x="1206" 
d="M1040 82c0 -376 -179.999 -564 -539.999 -564c-126.667 0 -237.334 24 -332.001 72v164c115.333 -64 225.333 -96 330 -96c252 0 378 134 378 402v112h-4c-78 -130.667 -195.333 -196 -352 -196c-127.333 0 -229.833 45.5 -307.5 136.5s-116.5 213.167 -116.5 366.5
c0 174 41.833 312.333 125.5 415s198.167 154 343.5 154c138 0 240.333 -55.333 307 -166h4v142h164v-942zM876.001 463l-0.000976562 151.001c0 81.333 -27.5 151 -82.5 209s-123.5 87 -205.5 87c-101.333 0 -180.666 -36.833 -237.999 -110.5s-86 -176.834 -86 -309.501
c0 -114 27.5 -205.167 82.5 -273.5s127.833 -102.5 218.5 -102.5c92 0 166.833 32.667 224.5 98s86.5 149 86.5 251zM868 1470c-6.66699 -75.333 -36.167 -136.167 -88.5 -182.5s-115.833 -69.5 -190.5 -69.5c-78 0 -141.667 23 -191 69s-75.666 107 -78.999 183h100
c8 -103.333 65.333 -155 172 -155c45.333 0 84.166 14 116.499 42s51.833 65.667 58.5 113h102z" />
    <glyph glyph-name="Gdotaccent" unicode="&#x120;" horiz-adv-x="1405" 
d="M1260 98c-144 -81.333 -303.997 -122 -479.997 -122c-204.667 0 -370.167 66 -496.5 198s-189.5 306.667 -189.5 524c0 222 70.167 404.167 210.5 546.5s318.166 213.5 533.499 213.5c156 0 287 -25.333 393 -76v-186c-116 73.333 -253.333 110 -412 110
c-160.667 0 -292.334 -55.333 -395.001 -166s-154 -254 -154 -430c0 -181.333 47.667 -323.833 143 -427.5s224.666 -155.5 387.999 -155.5c112 0 209 22.333 291 67v402h-314v152h482v-650zM798.003 1567c-26.667 0 -49.832 9.49707 -69.499 28.4971s-29.5 42.5 -29.5 70.5
c0 26.667 9.66699 49.334 29 68.001s42.666 28 69.999 28s50.5 -9.16699 69.5 -27.5s28.5 -41.166 28.5 -68.499s-9.5 -50.666 -28.5 -69.999s-42.167 -29 -69.5 -29z" />
    <glyph glyph-name="gdotaccent" unicode="&#x121;" horiz-adv-x="1206" 
d="M1040 82c0 -376 -179.999 -564 -539.999 -564c-126.667 0 -237.334 24 -332.001 72v164c115.333 -64 225.333 -96 330 -96c252 0 378 134 378 402v112h-4c-78 -130.667 -195.333 -196 -352 -196c-127.333 0 -229.833 45.5 -307.5 136.5s-116.5 213.167 -116.5 366.5
c0 174 41.833 312.333 125.5 415s198.167 154 343.5 154c138 0 240.333 -55.333 307 -166h4v142h164v-942zM876.001 463l-0.000976562 151.001c0 81.333 -27.5 151 -82.5 209s-123.5 87 -205.5 87c-101.333 0 -180.666 -36.833 -237.999 -110.5s-86 -176.834 -86 -309.501
c0 -114 27.5 -205.167 82.5 -273.5s127.833 -102.5 218.5 -102.5c92 0 166.833 32.667 224.5 98s86.5 149 86.5 251zM575 1218c-26.667 0 -49.832 9.49707 -69.499 28.4971s-29.5 42.5 -29.5 70.5c0 26.667 9.66699 49.334 29 68.001s42.666 28 69.999 28
s50.5 -9.16699 69.5 -27.5s28.5 -41.166 28.5 -68.499s-9.5 -50.666 -28.5 -69.999s-42.167 -29 -69.5 -29z" />
    <glyph glyph-name="Gcommaaccent" unicode="&#x122;" horiz-adv-x="1405" 
d="M1260 98c-144 -81.333 -303.997 -122 -479.997 -122c-204.667 0 -370.167 66 -496.5 198s-189.5 306.667 -189.5 524c0 222 70.167 404.167 210.5 546.5s318.166 213.5 533.499 213.5c156 0 287 -25.333 393 -76v-186c-116 73.333 -253.333 110 -412 110
c-160.667 0 -292.334 -55.333 -395.001 -166s-154 -254 -154 -430c0 -181.333 47.667 -323.833 143 -427.5s224.666 -155.5 387.999 -155.5c112 0 209 22.333 291 67v402h-314v152h482v-650zM885.003 -119l-166 -260h-123l117 260h172z" />
    <glyph glyph-name="gcommaaccent" unicode="&#x123;" horiz-adv-x="1206" 
d="M1040 82c0 -376 -179.999 -564 -539.999 -564c-128.667 0 -239.334 24 -332.001 72v164c116 -64 226 -96 330 -96c252 0 378 134 378 402v112h-4c-77.333 -130.667 -194.666 -196 -351.999 -196c-126.667 0 -229 45.833 -307 137.5s-117 213.5 -117 365.5
c0 174 41.833 312.333 125.5 415s198.167 154 343.5 154c139.333 0 241.666 -55.333 306.999 -166h4v142h164v-942zM876.001 463l0.00195312 151c0 80.667 -27.333 150.167 -82 208.5s-123.334 87.5 -206.001 87.5c-102.667 0 -182.334 -37 -239.001 -111s-85 -177 -85 -309
c0 -113.333 27.667 -204.333 83 -273s128 -103 218 -103c92.667 0 167.667 32.5 225 97.5s86 148.833 86 251.5zM471.003 1218l166 260h123l-117 -260h-172z" />
    <glyph glyph-name="Hcircumflex" unicode="&#x124;" horiz-adv-x="1454" 
d="M1266 0h-168v654h-742v-654h-168v1434h168v-629h742v629h168v-1434zM1006 1566h-122l-164 230l-165 -230h-113l215 332h133z" />
    <glyph glyph-name="hcircumflex" unicode="&#x125;" horiz-adv-x="1159" 
d="M1016 0l-164 0.000976562v590c0 213.333 -79.333 320 -238 320c-80 0 -147.333 -30.833 -202 -92.5s-82 -140.834 -82 -237.501v-580h-164v1516h164v-662h4c78.667 129.333 190.667 194 336 194c230.667 0 346 -139 346 -417v-631zM912 1647h-122l-164 230l-165 -230
h-113l215 332h133z" />
    <glyph glyph-name="Hbar" unicode="&#x126;" horiz-adv-x="1454" 
d="M1266 0h-168v654h-742v-654h-168v1028h-160v152h160v254h168v-254h742v254h168v-254h160v-152h-160v-1028zM356 1028v-223h742v223h-742z" />
    <glyph glyph-name="hbar" unicode="&#x127;" horiz-adv-x="1159" 
d="M1016 0h-164v590c0 213.333 -79.333 320 -238 320c-80 0 -147.333 -30.833 -202 -92.5s-82 -140.834 -82 -237.501v-580h-164v1202h-136v134h136v180h164v-180h332v-134h-332v-348h4c80 129.333 192 194 336 194c112 0 197.667 -35.667 257 -107s89 -174.666 89 -309.999
v-631z" />
    <glyph glyph-name="Itilde" unicode="&#x128;" horiz-adv-x="545" 
d="M496 1434v-144h-140v-1146h140v-144h-448v144h140v1146h-140v144h448zM594 1804c0 -70 -16 -127.167 -48 -171.5s-75.333 -66.5 -130 -66.5c-47.333 0 -101.333 17.333 -162 52c-51.333 28.667 -91 43 -119 43c-58.667 0 -88 -37.667 -88 -113h-94
c0 71.333 16 128.5 48 171.5s76.667 64.5 134 64.5c43.333 0 93 -17.333 149 -52c49.333 -29.333 92 -44 128 -44c56 0 84 38.667 84 116h98z" />
    <glyph glyph-name="itilde" unicode="&#x129;" horiz-adv-x="496" 
d="M330 0h-164v1024h164v-1024zM559 1458c0 -70 -16 -127.167 -48 -171.5s-75.333 -66.5 -130 -66.5c-47.333 0 -101.333 17.333 -162 52c-51.333 28.667 -91 43 -119 43c-58.667 0 -88 -37.667 -88 -113h-94c0 71.333 16 128.5 48 171.5s76.667 64.5 134 64.5
c43.333 0 93 -17.333 149 -52c49.333 -29.333 92 -44 128 -44c56 0 84 38.667 84 116h98z" />
    <glyph glyph-name="Imacron" unicode="&#x12a;" horiz-adv-x="545" 
d="M496 1434v-144h-140v-1146h140v-144h-448v144h140v1146h-140v144h448zM528 1566h-508v109h508v-109z" />
    <glyph glyph-name="imacron" unicode="&#x12b;" horiz-adv-x="496" 
d="M330 0h-164v1024h164v-1024zM492 1218h-508v109h508v-109z" />
    <glyph glyph-name="Ibreve" unicode="&#x12c;" horiz-adv-x="545" 
d="M496 1434v-144h-140v-1146h140v-144h-448v144h140v1146h-140v144h448zM548 1818c-6.66699 -75.333 -36.167 -136.167 -88.5 -182.5s-115.833 -69.5 -190.5 -69.5c-78 0 -141.667 23 -191 69s-75.666 107 -78.999 183h100c8 -103.333 65.333 -155 172 -155
c45.333 0 84.166 14 116.499 42s51.833 65.667 58.5 113h102z" />
    <glyph glyph-name="ibreve" unicode="&#x12d;" horiz-adv-x="496" 
d="M330 0h-164v1024h164v-1024zM513 1470c-6.66699 -75.333 -36.167 -136.167 -88.5 -182.5s-115.833 -69.5 -190.5 -69.5c-78 0 -141.667 23 -191 69s-75.666 107 -78.999 183h100c8 -103.333 65.333 -155 172 -155c45.333 0 84.166 14 116.499 42s51.833 65.667 58.5 113
h102z" />
    <glyph glyph-name="Iogonek" unicode="&#x12e;" horiz-adv-x="545" 
d="M496 1434v-144h-140v-1146h140v-144h-448v144h140v1146h-140v144h448zM427 0c-100 -94 -149.999 -168.333 -149.999 -223c0 -46.667 22.667 -70 68 -70c20 0 38.667 4.33301 56 13v-107c-20 -8.66699 -47.333 -13 -82 -13c-50.667 0 -91.334 13.333 -122.001 40
s-46 63.334 -46 110.001c0 81.333 52.333 164.666 157 249.999h119z" />
    <glyph glyph-name="iogonek" unicode="&#x12f;" horiz-adv-x="496" 
d="M250 1284c-29.333 0 -54.333 10 -75 30s-31 45.333 -31 76s10.333 56.167 31 76.5s45.667 30.5 75 30.5c30 0 55.5 -10.167 76.5 -30.5s31.5 -45.833 31.5 -76.5c0 -29.333 -10.5 -54.333 -31.5 -75s-46.5 -31 -76.5 -31zM330 0h-164v1024h164v-1024zM332 0
c-100 -94 -149.999 -168.333 -149.999 -223c0 -46.667 22.667 -70 68 -70c20 0 38.667 4.33301 56 13v-107c-20 -8.66699 -47.333 -13 -82 -13c-50.667 0 -91.334 13.333 -122.001 40s-46 63.334 -46 110.001c0 81.333 52.333 164.666 157 249.999h119z" />
    <glyph glyph-name="Idotaccent" unicode="&#x130;" horiz-adv-x="545" 
d="M496 1434v-144h-140v-1146h140v-144h-448v144h140v1146h-140v144h448zM272 1567c-26.667 0 -49.832 9.49707 -69.499 28.4971s-29.5 42.5 -29.5 70.5c0 26.667 9.66699 49.334 29 68.001s42.666 28 69.999 28s50.5 -9.16699 69.5 -27.5s28.5 -41.166 28.5 -68.499
s-9.5 -50.666 -28.5 -69.999s-42.167 -29 -69.5 -29z" />
    <glyph glyph-name="dotlessi" unicode="&#x131;" horiz-adv-x="496" 
d="M330 0h-164v1024h164v-1024z" />
    <glyph glyph-name="IJ" unicode="&#x132;" horiz-adv-x="1276" 
d="M496 1434v-144h-140v-1146h140v-144h-448v144h140v1146h-140v144h448zM1102 514c0 -170 -36 -302.167 -108 -396.5s-168.333 -141.5 -289 -141.5c-56 0 -102 8 -138 24v166c36 -26 82.667 -39 140 -39c151.333 0 227 128.333 227 385v922h168v-920z" />
    <glyph glyph-name="ij" unicode="&#x133;" horiz-adv-x="1014" 
d="M250 1284c-29.333 0 -54.333 10 -75 30s-31 45.333 -31 76s10.333 56.167 31 76.5s45.667 30.5 75 30.5c30 0 55.5 -10.167 76.5 -30.5s31.5 -45.833 31.5 -76.5c0 -29.333 -10.5 -54.333 -31.5 -75s-46.5 -31 -76.5 -31zM330 0h-164v1024h164v-1024zM848 43
c0 -168 -33.833 -297.5 -101.5 -388.5s-164.5 -136.5 -290.5 -136.5c-46.667 0 -92 10.667 -136 32v153c49.333 -30 96 -45 140 -45c149.333 0 224 119.333 224 358v1008h164v-981zM768 1284c-29.333 0 -54.333 10 -75 30s-31 45.333 -31 76s10.333 56.167 31 76.5
s45.667 30.5 75 30.5c30 0 55.5 -10.167 76.5 -30.5s31.5 -45.833 31.5 -76.5c0 -29.333 -10.5 -54.333 -31.5 -75s-46.5 -31 -76.5 -31z" />
    <glyph glyph-name="Jcircumflex" unicode="&#x134;" horiz-adv-x="731" 
d="M555 514c0 -170 -36 -302.167 -108 -396.5s-168.333 -141.5 -289 -141.5c-56 0 -102 8 -138 24v166c36 -26 82.667 -39 140 -39c151.333 0 227 128.333 227 385v922h168v-920zM754 1566h-122l-164 230l-165 -230h-113l215 332h133z" />
    <glyph glyph-name="jcircumflex" unicode="&#x135;" horiz-adv-x="496" 
d="M330 43c0 -84 -8.66797 -158.669 -26.001 -224.002s-42.5 -120.166 -75.5 -164.499s-74 -78.166 -123 -101.499s-104.833 -35 -167.5 -35c-46 0 -91.333 10.667 -136 32v153c48.667 -30 95.334 -45 140.001 -45c149.333 0 224 119.333 224 358v1008h164v-981z
M527.999 1218h-122l-164 230l-165 -230h-113l215 332h133z" />
    <glyph glyph-name="Kcommaaccent" unicode="&#x136;" horiz-adv-x="1188" 
d="M1186 0l-233.999 -0.000976562l-554 656c-20.667 24.667 -33.334 41.334 -38.001 50.001h-4v-706h-168v1434h168v-674h4c9.33301 14.667 22 31 38 49l536 625h209l-615 -688zM742.001 -119.001l-166 -260h-123l117 260h172z" />
    <glyph glyph-name="kcommaaccent" unicode="&#x137;" horiz-adv-x="1018" 
d="M1016 0h-230l-452 492h-4v-492h-164v1516h164v-961h4l430 469h215l-475 -494zM643 -119l-166 -260h-123l117 260h172z" />
    <glyph glyph-name="Lacute" unicode="&#x139;" horiz-adv-x="964" 
d="M932 0h-744v1434h168v-1282h576v-152zM856 1894l-262 -328h-127l223 328h166z" />
    <glyph glyph-name="lacute" unicode="&#x13a;" horiz-adv-x="496" 
d="M330 0h-164v1516h164v-1516zM531 1979l-262 -328h-127l223 328h166z" />
    <glyph glyph-name="Lcommaaccent" unicode="&#x13b;" horiz-adv-x="964" 
d="M932 0h-744v1434h168v-1282h576v-152zM672 -119l-166 -260h-123l117 260h172z" />
    <glyph glyph-name="lcommaaccent" unicode="&#x13c;" horiz-adv-x="496" 
d="M330 0h-164v1516h164v-1516zM349 -119l-166 -260h-123l117 260h172z" />
    <glyph glyph-name="Lcaron" unicode="&#x13d;" horiz-adv-x="964" 
d="M873 1458l-140 -446h-118l111 446h147zM932 0h-744v1434h168v-1282h576v-152z" />
    <glyph glyph-name="lcaron" unicode="&#x13e;" horiz-adv-x="629" 
d="M710 1512l-140 -446h-118l111 446h147zM330 0h-164v1516h164v-1516z" />
    <glyph glyph-name="Ldot" unicode="&#x13f;" horiz-adv-x="964" 
d="M932 0h-744v1434h168v-1282h576v-152zM736 667c-26.667 0 -49.832 9.49707 -69.499 28.4971s-29.5 42.5 -29.5 70.5c0 26.667 9.66699 49.334 29 68.001s42.666 28 69.999 28s50.5 -9.16699 69.5 -27.5s28.5 -41.166 28.5 -68.499s-9.5 -50.666 -28.5 -69.999
s-42.167 -29 -69.5 -29z" />
    <glyph glyph-name="ldot" unicode="&#x140;" horiz-adv-x="645" 
d="M330 0h-164v1516h164v-1516zM549 667c-26.667 0 -49.832 9.49707 -69.499 28.4971s-29.5 42.5 -29.5 70.5c0 26.667 9.66699 49.334 29 68.001s42.666 28 69.999 28s50.5 -9.16699 69.5 -27.5s28.5 -41.166 28.5 -68.499s-9.5 -50.666 -28.5 -69.999
s-42.167 -29 -69.5 -29z" />
    <glyph glyph-name="Lslash" unicode="&#x141;" horiz-adv-x="964" 
d="M932 0h-744v547l-155 -97v152l155 96v736h168v-631l328 203v-154l-328 -200v-500h576v-152z" />
    <glyph glyph-name="lslash" unicode="&#x142;" horiz-adv-x="561" 
d="M530 811l-174 -123v-688h-164v578l-170 -119v157l170 119v781h164v-670l174 122v-157z" />
    <glyph glyph-name="Nacute" unicode="&#x143;" horiz-adv-x="1532" 
d="M1344 0l-206 0.00195312l-738 1143c-18.667 28.667 -34 58.667 -46 90h-6c5.33301 -30.667 8 -96.334 8 -197.001v-1036h-168v1434h218l718 -1125c30 -46.667 49.333 -78.667 58 -96h4c-6.66699 41.333 -10 111.666 -10 210.999v1010h168v-1434zM1006 1894l-262 -328
h-127l223 328h166z" />
    <glyph glyph-name="nacute" unicode="&#x144;" horiz-adv-x="1159" 
d="M1016 0h-164v584c0 217.333 -79.333 326 -238 326c-82 0 -149.833 -30.833 -203.5 -92.5s-80.5 -139.5 -80.5 -233.5v-584h-164v1024h164v-170h4c77.333 129.333 189.333 194 336 194c112 0 197.667 -36.167 257 -108.5s89 -176.833 89 -313.5v-626zM836 1546l-262 -328
h-127l223 328h166z" />
    <glyph glyph-name="Ncommaaccent" unicode="&#x145;" horiz-adv-x="1532" 
d="M1344 0l-206 0.00195312l-738 1143c-18.667 28.667 -34 58.667 -46 90h-6c5.33301 -30.667 8 -96.334 8 -197.001v-1036h-168v1434h218l718 -1125c30 -46.667 49.333 -78.667 58 -96h4c-6.66699 41.333 -10 111.666 -10 210.999v1010h168v-1434zM870 -118.998l-166 -260
h-123l117 260h172z" />
    <glyph glyph-name="ncommaaccent" unicode="&#x146;" horiz-adv-x="1159" 
d="M1016 0h-164v584c0 217.333 -79.333 326 -238 326c-82 0 -149.833 -30.833 -203.5 -92.5s-80.5 -139.5 -80.5 -233.5v-584h-164v1024h164v-170h4c77.333 129.333 189.333 194 336 194c112 0 197.667 -36.167 257 -108.5s89 -176.833 89 -313.5v-626zM693 -119l-166 -260
h-123l117 260h172z" />
    <glyph glyph-name="Ncaron" unicode="&#x147;" horiz-adv-x="1532" 
d="M1344 0l-206 0.00195312l-738 1143c-18.667 28.667 -34 58.667 -46 90h-6c5.33301 -30.667 8 -96.334 8 -197.001v-1036h-168v1434h218l718 -1125c30 -46.667 49.333 -78.667 58 -96h4c-6.66699 41.333 -10 111.666 -10 210.999v1010h168v-1434zM1046 1896l-214 -330
h-132l-216 330h115l164 -229l164 229h119z" />
    <glyph glyph-name="ncaron" unicode="&#x148;" horiz-adv-x="1159" 
d="M1016 0h-164v584c0 217.333 -79.333 326 -238 326c-82 0 -149.833 -30.833 -203.5 -92.5s-80.5 -139.5 -80.5 -233.5v-584h-164v1024h164v-170h4c77.333 129.333 189.333 194 336 194c112 0 197.667 -36.167 257 -108.5s89 -176.833 89 -313.5v-626zM882 1548l-214 -330
h-132l-216 330h115l164 -229l164 229h119z" />
    <glyph glyph-name="napostrophe" unicode="&#x149;" horiz-adv-x="1241" 
d="M1098 0h-164v584c0 217.333 -79.333 326 -238 326c-82 0 -149.833 -30.833 -203.5 -92.5s-80.5 -139.5 -80.5 -233.5v-584h-164v1024h164v-170h4c77.333 129.333 189.333 194 336 194c112 0 197.667 -36.167 257 -108.5s89 -176.833 89 -313.5v-626zM218 1458l-140 -446
h-118l111 446h147z" />
    <glyph glyph-name="Eng" unicode="&#x14a;" horiz-adv-x="1503" 
d="M356 1172l6 -0.000976562c104.667 190.667 263.334 286 476.001 286c77.333 0 145.833 -13 205.5 -39s110 -64.167 151 -114.5s72 -112.333 93 -186s31.5 -157.834 31.5 -252.501v-475c0 -276.667 -112.667 -415 -338 -415c-42 0 -82 6.66699 -120 20v160
c33.333 -19.333 70.666 -29 111.999 -29c118.667 0 178 88 178 264v430c0 323.333 -117.667 485 -353 485c-64 0 -123 -12.667 -177 -38s-100.667 -60.166 -140 -104.499s-70 -96.666 -92 -156.999s-33 -125.5 -33 -195.5v-811h-168v1434h168v-262z" />
    <glyph glyph-name="eng" unicode="&#x14b;" horiz-adv-x="1159" 
d="M1016 26c0 -298.667 -119.333 -448 -358 -448c-50.667 0 -96.667 10.333 -138 31v165c52 -29.333 99.333 -44 142 -44c126.667 0 190 90 190 270v584c0 217.333 -79.333 326 -238 326c-81.333 0 -149 -30.833 -203 -92.5s-81 -139.5 -81 -233.5v-584h-164v1024h164v-170
h4c78 129.333 190 194 336 194c230.667 0 346 -140.667 346 -422v-600z" />
    <glyph glyph-name="Omacron" unicode="&#x14c;" horiz-adv-x="1544" 
d="M766 -24c-203.333 0 -366.168 66.999 -488.501 200.999s-183.5 308.333 -183.5 523c0 230.667 62.333 414.667 187 552s294.334 206 509.001 206c198 0 357.5 -66.667 478.5 -200s181.5 -307.666 181.5 -522.999c0 -234 -62 -419 -186 -555s-290 -204 -498 -204z
M777.998 1306c-150.667 0 -273 -54.3311 -367 -162.998s-141 -251.334 -141 -428.001s45.833 -318.834 137.5 -426.501s211.167 -161.5 358.5 -161.5c157.333 0 281.333 51.333 372 154s136 246.334 136 431.001c0 189.333 -44 335.666 -132 438.999s-209.333 155 -364 155z
M1032 1566h-508v109h508v-109z" />
    <glyph glyph-name="omacron" unicode="&#x14d;" horiz-adv-x="1200" 
d="M594 -24c-151.333 0 -272.169 47.832 -362.502 143.499s-135.5 222.5 -135.5 380.5c0 172 47 306.333 141 403s221 145 381 145c152.667 0 271.834 -47 357.501 -141s128.5 -224.333 128.5 -391c0 -163.333 -46.167 -294.166 -138.5 -392.499
s-216.166 -147.5 -371.499 -147.5zM605.997 909.999c-105.333 0 -188.667 -35.834 -250 -107.501s-92 -170.5 -92 -296.5c0 -121.333 31 -217 93 -287s145 -105 249 -105c106 0 187.5 34.333 244.5 103s85.5 166.334 85.5 293.001c0 128 -28.5 226.667 -85.5 296
s-138.5 104 -244.5 104zM863.996 1218h-508v109h508v-109z" />
    <glyph glyph-name="Obreve" unicode="&#x14e;" horiz-adv-x="1544" 
d="M766 -24c-203.333 0 -366.168 66.999 -488.501 200.999s-183.5 308.333 -183.5 523c0 230.667 62.333 414.667 187 552s294.334 206 509.001 206c198 0 357.5 -66.667 478.5 -200s181.5 -307.666 181.5 -522.999c0 -234 -62 -419 -186 -555s-290 -204 -498 -204z
M777.998 1306c-150.667 0 -273 -54.3311 -367 -162.998s-141 -251.334 -141 -428.001s45.833 -318.834 137.5 -426.501s211.167 -161.5 358.5 -161.5c157.333 0 281.333 51.333 372 154s136 246.334 136 431.001c0 189.333 -44 335.666 -132 438.999s-209.333 155 -364 155z
M1057 1820c-6.66699 -75.333 -36.167 -136.167 -88.5 -182.5s-115.833 -69.5 -190.5 -69.5c-78 0 -141.667 23 -191 69s-75.666 107 -78.999 183h100c8 -103.333 65.333 -155 172 -155c45.333 0 84.166 14 116.499 42s51.833 65.667 58.5 113h102z" />
    <glyph glyph-name="obreve" unicode="&#x14f;" horiz-adv-x="1200" 
d="M594 -24c-151.333 0 -272.169 47.832 -362.502 143.499s-135.5 222.5 -135.5 380.5c0 172 47 306.333 141 403s221 145 381 145c152.667 0 271.834 -47 357.501 -141s128.5 -224.333 128.5 -391c0 -163.333 -46.167 -294.166 -138.5 -392.499
s-216.166 -147.5 -371.499 -147.5zM605.997 909.999c-105.333 0 -188.667 -35.834 -250 -107.501s-92 -170.5 -92 -296.5c0 -121.333 31 -217 93 -287s145 -105 249 -105c106 0 187.5 34.333 244.5 103s85.5 166.334 85.5 293.001c0 128 -28.5 226.667 -85.5 296
s-138.5 104 -244.5 104zM894.996 1470c-6.66699 -75.333 -36.167 -136.167 -88.5 -182.5s-115.833 -69.5 -190.5 -69.5c-78 0 -141.667 23 -191 69s-75.666 107 -78.999 183h100c8 -103.333 65.333 -155 172 -155c45.333 0 84.166 14 116.499 42s51.833 65.667 58.5 113h102
z" />
    <glyph glyph-name="Ohungarumlaut" unicode="&#x150;" horiz-adv-x="1544" 
d="M766 -24c-203.333 0 -366.168 66.999 -488.501 200.999s-183.5 308.333 -183.5 523c0 230.667 62.333 414.667 187 552s294.334 206 509.001 206c198 0 357.5 -66.667 478.5 -200s181.5 -307.666 181.5 -522.999c0 -234 -62 -419 -186 -555s-290 -204 -498 -204z
M777.998 1306c-150.667 0 -273 -54.3311 -367 -162.998s-141 -251.334 -141 -428.001s45.833 -318.834 137.5 -426.501s211.167 -161.5 358.5 -161.5c157.333 0 281.333 51.333 372 154s136 246.334 136 431.001c0 189.333 -44 335.666 -132 438.999s-209.333 155 -364 155z
M1128 1886l-245 -318h-97l209 318h133zM880.998 1886l-240 -318h-96l206 318h130z" />
    <glyph glyph-name="ohungarumlaut" unicode="&#x151;" horiz-adv-x="1200" 
d="M594 -24c-151.333 0 -272.169 47.832 -362.502 143.499s-135.5 222.5 -135.5 380.5c0 172 47 306.333 141 403s221 145 381 145c152.667 0 271.834 -47 357.501 -141s128.5 -224.333 128.5 -391c0 -163.333 -46.167 -294.166 -138.5 -392.499
s-216.166 -147.5 -371.499 -147.5zM605.997 909.999c-105.333 0 -188.667 -35.834 -250 -107.501s-92 -170.5 -92 -296.5c0 -121.333 31 -217 93 -287s145 -105 249 -105c106 0 187.5 34.333 244.5 103s85.5 166.334 85.5 293.001c0 128 -28.5 226.667 -85.5 296
s-138.5 104 -244.5 104zM965.996 1536l-245 -318h-97l209 318h133zM718.996 1536l-240 -318h-96l206 318h130z" />
    <glyph glyph-name="OE" unicode="&#x152;" horiz-adv-x="1906" 
d="M1810 0h-720c-10.667 -0 -56.667 -4.66699 -138 -14c-65.333 -6.66699 -126 -10 -182 -10c-208 0 -372.667 67 -494 201s-182 308.333 -182 523c0 230.667 63.167 414.667 189.5 552s297.833 206 514.5 206c60 0 119.333 -3.33301 178 -10
c74.667 -9.33301 112.667 -14 114 -14h688v-152h-560v-477h518v-151h-518v-502h592v-152zM1050 160l0.000976562 1118c-106.667 18.667 -196 28 -268 28c-152.667 0 -276.167 -55.333 -370.5 -166s-141.5 -252.334 -141.5 -425.001c0 -172 46.5 -313 139.5 -423
s215.167 -165 366.5 -165c77.333 0 168.666 11 273.999 33z" />
    <glyph glyph-name="oe" unicode="&#x153;" horiz-adv-x="1900" 
d="M1825 471l-724.999 0.00195312c2 -114 32.5 -202 91.5 -264s139.833 -93 242.5 -93c116.667 0 223 38 319 114v-154c-90.667 -65.333 -209.667 -98 -357 -98c-180 0 -307.333 79 -382 237h-4c-87.333 -158 -226 -237 -416 -237c-152.667 0 -273.834 47.667 -363.501 143
s-134.5 221.666 -134.5 378.999c0 172 47.333 306.667 142 404s222 146 382 146c196 0 330 -78.333 402 -235h4c79.333 156.667 207.666 235 384.999 235c130.667 0 232.334 -43.833 305.001 -131.5s109 -206.834 109 -357.501v-88zM1657 610.002
c-1.33301 94.667 -24.332 168.333 -68.999 221s-105.667 79 -183 79c-80 0 -147.833 -28.5 -203.5 -85.5s-88.834 -128.5 -99.501 -214.5h555zM606.002 910.001c-105.333 0 -188.666 -36.167 -249.999 -108.5s-92 -172.166 -92 -299.499c0 -120 30.667 -214.667 92 -284
s144 -104 248 -104c106 0 187.833 34.167 245.5 102.5s86.5 165.5 86.5 291.5c0 129.333 -28.833 228.666 -86.5 297.999s-138.834 104 -243.501 104z" />
    <glyph glyph-name="Racute" unicode="&#x154;" horiz-adv-x="1225" 
d="M1216 0l-199.999 0.00390625l-240 402c-22 37.333 -43.333 69.166 -64 95.499s-41.834 47.833 -63.501 64.5s-45 28.834 -70 36.501s-53.167 11.5 -84.5 11.5h-138v-610h-168v1434h428c62.667 0 120.5 -7.83301 173.5 -23.5s99 -39.5 138 -71.5s69.5 -71.833 91.5 -119.5
s33 -103.5 33 -167.5c0 -50 -7.5 -95.833 -22.5 -137.5s-36.333 -78.834 -64 -111.501s-61 -60.5 -100 -83.5s-82.833 -40.833 -131.5 -53.5v-4c24 -10.667 44.833 -22.834 62.5 -36.501s34.5 -29.834 50.5 -48.501s31.833 -39.834 47.5 -63.501l52.5 -82.5zM356.001 1282
v-520.001h228c42 0 80.833 6.33301 116.5 19s66.5 30.834 92.5 54.501s46.333 52.667 61 87s22 72.833 22 115.5c0 76.667 -24.833 136.5 -74.5 179.5s-121.5 64.5 -215.5 64.5h-230zM875.001 1894l-262 -328h-127l223 328h166z" />
    <glyph glyph-name="racute" unicode="&#x155;" horiz-adv-x="712" 
d="M700 858c-28.667 22 -70.001 33 -124.001 33c-70 0 -128.5 -33 -175.5 -99s-70.5 -156 -70.5 -270v-522h-164v1024h164v-211h4c23.333 72 59 128.167 107 168.5s101.667 60.5 161 60.5c42.667 0 75.334 -4.66699 98.001 -14v-170zM687.999 1546l-262 -328h-127l223 328
h166z" />
    <glyph glyph-name="Rcommaaccent" unicode="&#x156;" horiz-adv-x="1225" 
d="M1216 0l-199.999 0.00390625l-240 402c-22 37.333 -43.333 69.166 -64 95.499s-41.834 47.833 -63.501 64.5s-45 28.834 -70 36.501s-53.167 11.5 -84.5 11.5h-138v-610h-168v1434h428c62.667 0 120.5 -7.83301 173.5 -23.5s99 -39.5 138 -71.5s69.5 -71.833 91.5 -119.5
s33 -103.5 33 -167.5c0 -50 -7.5 -95.833 -22.5 -137.5s-36.333 -78.834 -64 -111.501s-61 -60.5 -100 -83.5s-82.833 -40.833 -131.5 -53.5v-4c24 -10.667 44.833 -22.834 62.5 -36.501s34.5 -29.834 50.5 -48.501s31.833 -39.834 47.5 -63.501l52.5 -82.5zM356.001 1282
v-520.001h228c42 0 80.833 6.33301 116.5 19s66.5 30.834 92.5 54.501s46.333 52.667 61 87s22 72.833 22 115.5c0 76.667 -24.833 136.5 -74.5 179.5s-121.5 64.5 -215.5 64.5h-230zM736.001 -118.997l-166 -260h-123l117 260h172z" />
    <glyph glyph-name="rcommaaccent" unicode="&#x157;" horiz-adv-x="712" 
d="M700 858c-28.667 22 -70.001 33 -124.001 33c-70 0 -128.5 -33 -175.5 -99s-70.5 -156 -70.5 -270v-522h-164v1024h164v-211h4c23.333 72 59 128.167 107 168.5s101.667 60.5 161 60.5c42.667 0 75.334 -4.66699 98.001 -14v-170zM532.999 -119l-166 -260h-123l117 260
h172z" />
    <glyph glyph-name="Rcaron" unicode="&#x158;" horiz-adv-x="1225" 
d="M1216 0l-199.999 0.00390625l-240 402c-22 37.333 -43.333 69.166 -64 95.499s-41.834 47.833 -63.501 64.5s-45 28.834 -70 36.501s-53.167 11.5 -84.5 11.5h-138v-610h-168v1434h428c62.667 0 120.5 -7.83301 173.5 -23.5s99 -39.5 138 -71.5s69.5 -71.833 91.5 -119.5
s33 -103.5 33 -167.5c0 -50 -7.5 -95.833 -22.5 -137.5s-36.333 -78.834 -64 -111.501s-61 -60.5 -100 -83.5s-82.833 -40.833 -131.5 -53.5v-4c24 -10.667 44.833 -22.834 62.5 -36.501s34.5 -29.834 50.5 -48.501s31.833 -39.834 47.5 -63.501l52.5 -82.5zM356.001 1282
v-520.001h228c42 0 80.833 6.33301 116.5 19s66.5 30.834 92.5 54.501s46.333 52.667 61 87s22 72.833 22 115.5c0 76.667 -24.833 136.5 -74.5 179.5s-121.5 64.5 -215.5 64.5h-230zM891.001 1896l-214 -330h-132l-216 330h115l164 -229l164 229h119z" />
    <glyph glyph-name="rcaron" unicode="&#x159;" horiz-adv-x="712" 
d="M700 858c-28.667 22 -70.001 33 -124.001 33c-70 0 -128.5 -33 -175.5 -99s-70.5 -156 -70.5 -270v-522h-164v1024h164v-211h4c23.333 72 59 128.167 107 168.5s101.667 60.5 161 60.5c42.667 0 75.334 -4.66699 98.001 -14v-170zM712.999 1548l-214 -330h-132l-216 330
h115l164 -229l164 229h119z" />
    <glyph glyph-name="Sacute" unicode="&#x15a;" horiz-adv-x="1088" 
d="M121 58l-0.000976562 198c22.667 -20 49.834 -38 81.501 -54s65 -29.5 100 -40.5s70.167 -19.5 105.5 -25.5s68 -9 98 -9c103.333 0 180.5 19.167 231.5 57.5s76.5 93.5 76.5 165.5c0 38.667 -8.5 72.334 -25.5 101.001s-40.5 54.834 -70.5 78.501
s-65.5 46.334 -106.5 68.001l-132.5 68.5c-50 25.333 -96.667 51 -140 77s-81 54.667 -113 86s-57.167 66.833 -75.5 106.5s-27.5 86.167 -27.5 139.5c0 65.333 14.333 122.166 43 170.499s66.334 88.166 113.001 119.499s99.834 54.666 159.501 69.999s120.5 23 182.5 23
c141.333 0 244.333 -17 309 -51v-189c-84.667 58.667 -193.334 88 -326.001 88c-36.667 0 -73.334 -3.83301 -110.001 -11.5s-69.334 -20.167 -98.001 -37.5s-52 -39.666 -70 -66.999s-27 -60.666 -27 -99.999c0 -36.667 6.83301 -68.334 20.5 -95.001
s33.834 -51 60.501 -73s59.167 -43.333 97.5 -64s82.5 -43.334 132.5 -68.001c51.333 -25.333 100 -52 146 -80s86.333 -59 121 -93s62.167 -71.667 82.5 -113s30.5 -88.666 30.5 -141.999c0 -70.667 -13.833 -130.5 -41.5 -179.5s-65 -88.833 -112 -119.5
s-101.167 -52.834 -162.5 -66.501s-126 -20.5 -194 -20.5c-22.667 0 -50.667 1.83301 -84 5.5s-67.333 9 -102 16s-67.5 15.667 -98.5 26s-55.833 21.833 -74.5 34.5zM820.999 1893l-262 -328h-127l223 328h166z" />
    <glyph glyph-name="sacute" unicode="&#x15b;" horiz-adv-x="869" 
d="M104 37l-0.000976562 176c89.333 -66 187.666 -99 294.999 -99c144 0 216 48 216 144c0 27.333 -6.16699 50.5 -18.5 69.5s-29 35.833 -50 50.5s-45.667 27.834 -74 39.501l-91.5 36.5c-45.333 18 -85.166 36.167 -119.499 54.5s-63 39 -86 62s-40.333 49.167 -52 78.5
s-17.5 63.666 -17.5 102.999c0 48 11 90.5 33 127.5s51.333 68 88 93s78.5 43.833 125.5 56.5s95.5 19 145.5 19c88.667 0 168 -15.333 238 -46v-166c-75.333 49.333 -162 74 -260 74c-30.667 0 -58.334 -3.5 -83.001 -10.5s-45.834 -16.833 -63.501 -29.5
s-31.334 -27.834 -41.001 -45.501s-14.5 -37.167 -14.5 -58.5c0 -26.667 4.83301 -49 14.5 -67s23.834 -34 42.501 -48s41.334 -26.667 68.001 -38l91 -37c45.333 -17.333 86 -35.166 122 -53.499s66.667 -39 92 -62s44.833 -49.5 58.5 -79.5s20.5 -65.667 20.5 -107
c0 -50.667 -11.167 -94.667 -33.5 -132s-52.166 -68.333 -89.499 -93s-80.333 -43 -129 -55s-99.667 -18 -153 -18c-105.333 0 -196.666 20.333 -273.999 61zM713.999 1546l-262 -328h-127l223 328h166z" />
    <glyph glyph-name="Scircumflex" unicode="&#x15c;" horiz-adv-x="1088" 
d="M121 58l-0.000976562 198c22.667 -20 49.834 -38 81.501 -54s65 -29.5 100 -40.5s70.167 -19.5 105.5 -25.5s68 -9 98 -9c103.333 0 180.5 19.167 231.5 57.5s76.5 93.5 76.5 165.5c0 38.667 -8.5 72.334 -25.5 101.001s-40.5 54.834 -70.5 78.501
s-65.5 46.334 -106.5 68.001l-132.5 68.5c-50 25.333 -96.667 51 -140 77s-81 54.667 -113 86s-57.167 66.833 -75.5 106.5s-27.5 86.167 -27.5 139.5c0 65.333 14.333 122.166 43 170.499s66.334 88.166 113.001 119.499s99.834 54.666 159.501 69.999s120.5 23 182.5 23
c141.333 0 244.333 -17 309 -51v-189c-84.667 58.667 -193.334 88 -326.001 88c-36.667 0 -73.334 -3.83301 -110.001 -11.5s-69.334 -20.167 -98.001 -37.5s-52 -39.666 -70 -66.999s-27 -60.666 -27 -99.999c0 -36.667 6.83301 -68.334 20.5 -95.001
s33.834 -51 60.501 -73s59.167 -43.333 97.5 -64s82.5 -43.334 132.5 -68.001c51.333 -25.333 100 -52 146 -80s86.333 -59 121 -93s62.167 -71.667 82.5 -113s30.5 -88.666 30.5 -141.999c0 -70.667 -13.833 -130.5 -41.5 -179.5s-65 -88.833 -112 -119.5
s-101.167 -52.834 -162.5 -66.501s-126 -20.5 -194 -20.5c-22.667 0 -50.667 1.83301 -84 5.5s-67.333 9 -102 16s-67.5 15.667 -98.5 26s-55.833 21.833 -74.5 34.5zM832.999 1566h-122l-164 230l-165 -230h-113l215 332h133z" />
    <glyph glyph-name="scircumflex" unicode="&#x15d;" horiz-adv-x="869" 
d="M104 37l-0.000976562 176c89.333 -66 187.666 -99 294.999 -99c144 0 216 48 216 144c0 27.333 -6.16699 50.5 -18.5 69.5s-29 35.833 -50 50.5s-45.667 27.834 -74 39.501l-91.5 36.5c-45.333 18 -85.166 36.167 -119.499 54.5s-63 39 -86 62s-40.333 49.167 -52 78.5
s-17.5 63.666 -17.5 102.999c0 48 11 90.5 33 127.5s51.333 68 88 93s78.5 43.833 125.5 56.5s95.5 19 145.5 19c88.667 0 168 -15.333 238 -46v-166c-75.333 49.333 -162 74 -260 74c-30.667 0 -58.334 -3.5 -83.001 -10.5s-45.834 -16.833 -63.501 -29.5
s-31.334 -27.834 -41.001 -45.501s-14.5 -37.167 -14.5 -58.5c0 -26.667 4.83301 -49 14.5 -67s23.834 -34 42.501 -48s41.334 -26.667 68.001 -38l91 -37c45.333 -17.333 86 -35.166 122 -53.499s66.667 -39 92 -62s44.833 -49.5 58.5 -79.5s20.5 -65.667 20.5 -107
c0 -50.667 -11.167 -94.667 -33.5 -132s-52.166 -68.333 -89.499 -93s-80.333 -43 -129 -55s-99.667 -18 -153 -18c-105.333 0 -196.666 20.333 -273.999 61zM710.999 1218h-122l-164 230l-165 -230h-113l215 332h133z" />
    <glyph glyph-name="Scedilla" unicode="&#x15e;" horiz-adv-x="1088" 
d="M121 58l-0.000976562 198c22.667 -20 49.834 -38 81.501 -54s65 -29.5 100 -40.5s70.167 -19.5 105.5 -25.5s68 -9 98 -9c103.333 0 180.5 19.167 231.5 57.5s76.5 93.5 76.5 165.5c0 38.667 -8.5 72.334 -25.5 101.001s-40.5 54.834 -70.5 78.501
s-65.5 46.334 -106.5 68.001l-132.5 68.5c-50 25.333 -96.667 51 -140 77s-81 54.667 -113 86s-57.167 66.833 -75.5 106.5s-27.5 86.167 -27.5 139.5c0 65.333 14.333 122.166 43 170.499s66.334 88.166 113.001 119.499s99.834 54.666 159.501 69.999s120.5 23 182.5 23
c141.333 0 244.333 -17 309 -51v-189c-84.667 58.667 -193.334 88 -326.001 88c-36.667 0 -73.334 -3.83301 -110.001 -11.5s-69.334 -20.167 -98.001 -37.5s-52 -39.666 -70 -66.999s-27 -60.666 -27 -99.999c0 -36.667 6.83301 -68.334 20.5 -95.001
s33.834 -51 60.501 -73s59.167 -43.333 97.5 -64s82.5 -43.334 132.5 -68.001c51.333 -25.333 100 -52 146 -80s86.333 -59 121 -93s62.167 -71.667 82.5 -113s30.5 -88.666 30.5 -141.999c0 -70.667 -13.833 -130.5 -41.5 -179.5s-65 -88.833 -112 -119.5
s-101.167 -52.834 -162.5 -66.501s-126 -20.5 -194 -20.5c-22.667 0 -50.667 1.83301 -84 5.5s-67.333 9 -102 16s-67.5 15.667 -98.5 26s-55.833 21.833 -74.5 34.5zM764.999 -256c0 -117.333 -91.666 -176 -274.999 -176c-25.333 0 -47 0.666992 -65 2v90
c28.667 -4 52 -6 70 -6c94 0 141 30 141 90c0 52 -43 78 -129 78c-6.66699 0 -20.334 -1.33301 -41.001 -4v182h108v-104c58.667 0 105.167 -13.333 139.5 -40s51.5 -64 51.5 -112z" />
    <glyph glyph-name="scedilla" unicode="&#x15f;" horiz-adv-x="869" 
d="M104 37l-0.000976562 176c89.333 -66 187.666 -99 294.999 -99c144 0 216 48 216 144c0 27.333 -6.16699 50.5 -18.5 69.5s-29 35.833 -50 50.5s-45.667 27.834 -74 39.501l-91.5 36.5c-45.333 18 -85.166 36.167 -119.499 54.5s-63 39 -86 62s-40.333 49.167 -52 78.5
s-17.5 63.666 -17.5 102.999c0 48 11 90.5 33 127.5s51.333 68 88 93s78.5 43.833 125.5 56.5s95.5 19 145.5 19c88.667 0 168 -15.333 238 -46v-166c-75.333 49.333 -162 74 -260 74c-30.667 0 -58.334 -3.5 -83.001 -10.5s-45.834 -16.833 -63.501 -29.5
s-31.334 -27.834 -41.001 -45.501s-14.5 -37.167 -14.5 -58.5c0 -26.667 4.83301 -49 14.5 -67s23.834 -34 42.501 -48s41.334 -26.667 68.001 -38l91 -37c45.333 -17.333 86 -35.166 122 -53.499s66.667 -39 92 -62s44.833 -49.5 58.5 -79.5s20.5 -65.667 20.5 -107
c0 -50.667 -11.167 -94.667 -33.5 -132s-52.166 -68.333 -89.499 -93s-80.333 -43 -129 -55s-99.667 -18 -153 -18c-105.333 0 -196.666 20.333 -273.999 61zM649.999 -256c0 -117.333 -91.666 -176 -274.999 -176c-25.333 0 -47 0.666992 -65 2v90c28.667 -4 52 -6 70 -6
c94 0 141 30 141 90c0 52 -43 78 -129 78c-6.66699 0 -20.334 -1.33301 -41.001 -4v182h108v-104c58.667 0 105.167 -13.333 139.5 -40s51.5 -64 51.5 -112z" />
    <glyph glyph-name="Scaron" unicode="&#x160;" horiz-adv-x="1088" 
d="M121 58l-0.000976562 198c22.667 -20 49.834 -38 81.501 -54s65 -29.5 100 -40.5s70.167 -19.5 105.5 -25.5s68 -9 98 -9c103.333 0 180.5 19.167 231.5 57.5s76.5 93.5 76.5 165.5c0 38.667 -8.5 72.334 -25.5 101.001s-40.5 54.834 -70.5 78.501
s-65.5 46.334 -106.5 68.001l-132.5 68.5c-50 25.333 -96.667 51 -140 77s-81 54.667 -113 86s-57.167 66.833 -75.5 106.5s-27.5 86.167 -27.5 139.5c0 65.333 14.333 122.166 43 170.499s66.334 88.166 113.001 119.499s99.834 54.666 159.501 69.999s120.5 23 182.5 23
c141.333 0 244.333 -17 309 -51v-189c-84.667 58.667 -193.334 88 -326.001 88c-36.667 0 -73.334 -3.83301 -110.001 -11.5s-69.334 -20.167 -98.001 -37.5s-52 -39.666 -70 -66.999s-27 -60.666 -27 -99.999c0 -36.667 6.83301 -68.334 20.5 -95.001
s33.834 -51 60.501 -73s59.167 -43.333 97.5 -64s82.5 -43.334 132.5 -68.001c51.333 -25.333 100 -52 146 -80s86.333 -59 121 -93s62.167 -71.667 82.5 -113s30.5 -88.666 30.5 -141.999c0 -70.667 -13.833 -130.5 -41.5 -179.5s-65 -88.833 -112 -119.5
s-101.167 -52.834 -162.5 -66.501s-126 -20.5 -194 -20.5c-22.667 0 -50.667 1.83301 -84 5.5s-67.333 9 -102 16s-67.5 15.667 -98.5 26s-55.833 21.833 -74.5 34.5zM825.999 1898l-214 -330h-132l-216 330h115l164 -229l164 229h119z" />
    <glyph glyph-name="scaron" unicode="&#x161;" horiz-adv-x="869" 
d="M104 37l-0.000976562 176c89.333 -66 187.666 -99 294.999 -99c144 0 216 48 216 144c0 27.333 -6.16699 50.5 -18.5 69.5s-29 35.833 -50 50.5s-45.667 27.834 -74 39.501l-91.5 36.5c-45.333 18 -85.166 36.167 -119.499 54.5s-63 39 -86 62s-40.333 49.167 -52 78.5
s-17.5 63.666 -17.5 102.999c0 48 11 90.5 33 127.5s51.333 68 88 93s78.5 43.833 125.5 56.5s95.5 19 145.5 19c88.667 0 168 -15.333 238 -46v-166c-75.333 49.333 -162 74 -260 74c-30.667 0 -58.334 -3.5 -83.001 -10.5s-45.834 -16.833 -63.501 -29.5
s-31.334 -27.834 -41.001 -45.501s-14.5 -37.167 -14.5 -58.5c0 -26.667 4.83301 -49 14.5 -67s23.834 -34 42.501 -48s41.334 -26.667 68.001 -38l91 -37c45.333 -17.333 86 -35.166 122 -53.499s66.667 -39 92 -62s44.833 -49.5 58.5 -79.5s20.5 -65.667 20.5 -107
c0 -50.667 -11.167 -94.667 -33.5 -132s-52.166 -68.333 -89.499 -93s-80.333 -43 -129 -55s-99.667 -18 -153 -18c-105.333 0 -196.666 20.333 -273.999 61zM680.999 1548l-214 -330h-132l-216 330h115l164 -229l164 229h119z" />
    <glyph glyph-name="Tcedilla" unicode="&#x162;" horiz-adv-x="1073" 
d="M1036 1282h-414v-1282h-168v1282h-413v152h995v-152zM764 -256c0 -117.333 -91.666 -176 -274.999 -176c-25.333 0 -47 0.666992 -65 2v90c28.667 -4 52 -6 70 -6c94 0 141 30 141 90c0 52 -43 78 -129 78c-6.66699 0 -20.334 -1.33301 -41.001 -4v182h108v-104
c58.667 0 105.167 -13.333 139.5 -40s51.5 -64 51.5 -112z" />
    <glyph glyph-name="tcedilla" unicode="&#x163;" horiz-adv-x="694" 
d="M641 10c-38.667 -21.333 -89.667 -32 -153 -32c-179.333 0 -269 100 -269 300v606h-176v140h176v250l164 53v-303h258v-140h-258v-577c0 -68.667 11.667 -117.667 35 -147s62 -44 116 -44c41.333 0 77 11.333 107 34v-140zM666 -256
c0 -117.333 -91.666 -176 -274.999 -176c-25.333 0 -47 0.666992 -65 2v90c28.667 -4 52 -6 70 -6c94 0 141 30 141 90c0 52 -43 78 -129 78c-6.66699 0 -20.334 -1.33301 -41.001 -4v182h108v-104c58.667 0 105.167 -13.333 139.5 -40s51.5 -64 51.5 -112z" />
    <glyph glyph-name="Tcaron" unicode="&#x164;" horiz-adv-x="1073" 
d="M1036 1282h-414v-1282h-168v1282h-413v152h995v-152zM821 1896l-214 -330h-132l-216 330h115l164 -229l164 229h119z" />
    <glyph glyph-name="tcaron" unicode="&#x165;" horiz-adv-x="901" 
d="M641 10c-39.333 -21.333 -90.333 -32 -153 -32c-179.333 0 -269 100 -269 300v606h-176v140h176v250l164 53v-303h258v-140h-258v-577c0 -68.667 11.667 -117.667 35 -147s62 -44 116 -44c42 0 77.667 11.333 107 34v-140zM979 1394l-166 -260h-123l117 260h172z" />
    <glyph glyph-name="Tbar" unicode="&#x166;" horiz-adv-x="1073" 
d="M1036 1282h-414v-486h246v-155h-246v-641h-168v641h-249v155h249v486h-413v152h995v-152z" />
    <glyph glyph-name="tbar" unicode="&#x167;" horiz-adv-x="694" 
d="M631 547h-248.001v-240c0 -68.667 11.5 -117.667 34.5 -147s61.833 -44 116.5 -44c40.667 0 76.334 11.333 107.001 34v-140c-39.333 -21.333 -90.333 -32 -153 -32c-179.333 0 -269 100 -269 300v269h-163v133h163v204h-176v140h176v250l82 27l82 26v-303h258v-140h-258
v-204h248v-133z" />
    <glyph glyph-name="Utilde" unicode="&#x168;" horiz-adv-x="1407" 
d="M1237 580c0 -402.667 -181.667 -604 -545 -604c-348 0 -522 193.667 -522 581v877h168v-866c0 -294 124 -441 372 -441c239.333 0 359 142 359 426v881h168v-854zM1027 1806c0 -70 -16 -127.167 -48 -171.5s-75.333 -66.5 -130 -66.5c-47.333 0 -101.333 17.333 -162 52
c-51.333 28.667 -91 43 -119 43c-58.667 0 -88 -37.667 -88 -113h-94c0 71.333 16 128.5 48 171.5s76.667 64.5 134 64.5c43.333 0 93 -17.333 149 -52c49.333 -29.333 92 -44 128 -44c56 0 84 38.667 84 116h98z" />
    <glyph glyph-name="utilde" unicode="&#x169;" horiz-adv-x="1159" 
d="M994 0h-164v162h-4c-68 -124 -173.333 -186 -316 -186c-244 0 -366 145.333 -366 436v612h163v-586c0 -216 82.667 -324 248 -324c80 0 145.833 29.5 197.5 88.5s77.5 136.167 77.5 231.5v590h164v-1024zM890 1458c0 -70 -16 -127.167 -48 -171.5
s-75.333 -66.5 -130 -66.5c-47.333 0 -101.333 17.333 -162 52c-51.333 28.667 -91 43 -119 43c-58.667 0 -88 -37.667 -88 -113h-94c0 71.333 16 128.5 48 171.5s76.667 64.5 134 64.5c43.333 0 93 -17.333 149 -52c49.333 -29.333 92 -44 128 -44c56 0 84 38.667 84 116
h98z" />
    <glyph glyph-name="Umacron" unicode="&#x16a;" horiz-adv-x="1407" 
d="M1237 580c0 -402.667 -181.667 -604 -545 -604c-348 0 -522 193.667 -522 581v877h168v-866c0 -294 124 -441 372 -441c239.333 0 359 142 359 426v881h168v-854zM955 1566h-508v109h508v-109z" />
    <glyph glyph-name="umacron" unicode="&#x16b;" horiz-adv-x="1159" 
d="M994 0h-164v162h-4c-68 -124 -173.333 -186 -316 -186c-244 0 -366 145.333 -366 436v612h163v-586c0 -216 82.667 -324 248 -324c80 0 145.833 29.5 197.5 88.5s77.5 136.167 77.5 231.5v590h164v-1024zM819 1218h-508v109h508v-109z" />
    <glyph glyph-name="Ubreve" unicode="&#x16c;" horiz-adv-x="1407" 
d="M1237 580c0 -402.667 -181.667 -604 -545 -604c-348 0 -522 193.667 -522 581v877h168v-866c0 -294 124 -441 372 -441c239.333 0 359 142 359 426v881h168v-854zM974 1818c-6.66699 -75.333 -36.167 -136.167 -88.5 -182.5s-115.833 -69.5 -190.5 -69.5
c-78 0 -141.667 23 -191 69s-75.666 107 -78.999 183h100c8 -103.333 65.333 -155 172 -155c45.333 0 84.166 14 116.499 42s51.833 65.667 58.5 113h102z" />
    <glyph glyph-name="ubreve" unicode="&#x16d;" horiz-adv-x="1159" 
d="M994 0h-164v162h-4c-68 -124 -173.333 -186 -316 -186c-244 0 -366 145.333 -366 436v612h163v-586c0 -216 82.667 -324 248 -324c80 0 145.833 29.5 197.5 88.5s77.5 136.167 77.5 231.5v590h164v-1024zM839 1470c-6.66699 -75.333 -36.167 -136.167 -88.5 -182.5
s-115.833 -69.5 -190.5 -69.5c-78 0 -141.667 23 -191 69s-75.666 107 -78.999 183h100c8 -103.333 65.333 -155 172 -155c45.333 0 84.166 14 116.499 42s51.833 65.667 58.5 113h102z" />
    <glyph glyph-name="Uring" unicode="&#x16e;" horiz-adv-x="1407" 
d="M1237 580c0 -402.667 -181.667 -604 -545 -604c-348 0 -522 193.667 -522 581v877h168v-866c0 -294 124 -441 372 -441c239.333 0 359 142 359 426v881h168v-854zM682 1567c-58 0 -106.166 17.5 -144.499 52.5s-57.5 80.833 -57.5 137.5c0 60 19.667 108 59 144
s89.333 54 150 54c59.333 0 108 -18 146 -54s57 -82 57 -138s-20.333 -102.667 -61 -140s-90.334 -56 -149.001 -56zM682.001 1874c-32 0 -58.667 -10.833 -80 -32.5s-32 -48.5 -32 -80.5c0 -74.667 37.333 -112 112 -112c33.333 0 61 10.667 83 32s33 48 33 80
c0 32.667 -11 59.667 -33 81s-49.667 32 -83 32z" />
    <glyph glyph-name="uring" unicode="&#x16f;" horiz-adv-x="1159" 
d="M994 0h-164v162h-4c-68 -124 -173.333 -186 -316 -186c-244 0 -366 145.333 -366 436v612h163v-586c0 -216 82.667 -324 248 -324c80 0 145.833 29.5 197.5 88.5s77.5 136.167 77.5 231.5v590h164v-1024zM564 1176c-58 0 -106.166 17.5 -144.499 52.5
s-57.5 80.833 -57.5 137.5c0 60 19.667 108 59 144s89.333 54 150 54c59.333 0 108 -18 146 -54s57 -82 57 -138s-20.333 -102.667 -61 -140s-90.334 -56 -149.001 -56zM564.001 1483c-32 0 -58.667 -10.833 -80 -32.5s-32 -48.5 -32 -80.5c0 -74.667 37.333 -112 112 -112
c33.333 0 61 10.667 83 32s33 48 33 80c0 32.667 -11 59.667 -33 81s-49.667 32 -83 32z" />
    <glyph glyph-name="Uhungarumlaut" unicode="&#x170;" horiz-adv-x="1407" 
d="M1237 580c0 -402.667 -181.667 -604 -545 -604c-348 0 -522 193.667 -522 581v877h168v-866c0 -294 124 -441 372 -441c239.333 0 359 142 359 426v881h168v-854zM1050 1884l-245 -318h-97l209 318h133zM803 1884l-240 -318h-96l206 318h130z" />
    <glyph glyph-name="uhungarumlaut" unicode="&#x171;" horiz-adv-x="1159" 
d="M994 0h-164v162h-4c-68 -124 -173.333 -186 -316 -186c-244 0 -366 145.333 -366 436v612h163v-586c0 -216 82.667 -324 248 -324c80 0 145.833 29.5 197.5 88.5s77.5 136.167 77.5 231.5v590h164v-1024zM908 1536l-245 -318h-97l209 318h133zM661 1536l-240 -318h-96
l206 318h130z" />
    <glyph glyph-name="Uogonek" unicode="&#x172;" horiz-adv-x="1407" 
d="M1237 580c0 -402.667 -181.667 -604 -545 -604c-348 0 -522 193.667 -522 581v877h168v-866c0 -294 124 -441 372 -441c239.333 0 359 142 359 426v881h168v-854zM866 0c-100 -94 -149.999 -168.333 -149.999 -223c0 -46.667 22.667 -70 68 -70
c20 0 38.667 4.33301 56 13v-107c-20 -8.66699 -47.333 -13 -82 -13c-50.667 0 -91.334 13.333 -122.001 40s-46 63.334 -46 110.001c0 81.333 52.333 164.666 157 249.999h119z" />
    <glyph glyph-name="uogonek" unicode="&#x173;" horiz-adv-x="1159" 
d="M994 0h-164v162h-4c-68 -124 -173.333 -186 -316 -186c-244 0 -366 145.333 -366 436v612h163v-586c0 -216 82.667 -324 248 -324c80 0 145.833 29.5 197.5 88.5s77.5 136.167 77.5 231.5v590h164v-1024zM994 0c-100 -94 -149.999 -168.333 -149.999 -223
c0 -46.667 22.667 -70 68 -70c20 0 38.667 4.33301 56 13v-107c-20 -8.66699 -47.333 -13 -82 -13c-50.667 0 -91.334 13.333 -122.001 40s-46 63.334 -46 110.001c0 81.333 52.333 164.666 157 249.999h119z" />
    <glyph glyph-name="Wcircumflex" unicode="&#x174;" horiz-adv-x="1913" 
d="M1888 1434l-404.998 -1434h-197l-295 1048c-12.667 44.667 -20.334 93.334 -23.001 146.001h-4c-4 -49.333 -12.667 -97.333 -26 -144l-297 -1050h-195l-420 1434h185l305 -1100c12.667 -46 20.667 -94 24 -144h5c3.33301 35.333 13.666 83.333 30.999 144l317 1100h161
l304 -1108c10.667 -38 18.667 -82.667 24 -134h4c2.66699 34.667 11.667 80.667 27 138l293 1104h182zM1259 1566h-122l-164 230l-165 -230h-113l215 332h133z" />
    <glyph glyph-name="wcircumflex" unicode="&#x175;" horiz-adv-x="1480" 
d="M1456 1024l-307.001 -1024h-170l-211 733c-8 28 -13.333 59.667 -16 95h-4c-2 -24 -9 -55 -21 -93l-229 -735h-164l-310 1024h172l212 -770c6.66699 -23.333 11.334 -54 14.001 -92h8c2 29.333 8 60.666 18 93.999l236 768h150l212 -772
c6.66699 -24.667 11.667 -55.334 15 -92.001h8c1.33301 26 7 56.667 17 92l208 772h162zM1040 1218h-122l-164 230l-165 -230h-113l215 332h133z" />
    <glyph glyph-name="Ycircumflex" unicode="&#x176;" horiz-adv-x="1132" 
d="M1120 1434l-473.001 -904v-530h-168v526l-461 908h191l321 -648c4 -8 15.667 -37.333 35 -88h3c6.66699 22.667 19.334 52 38.001 88l336 648h178zM852.999 1565h-122l-164 230l-165 -230h-113l215 332h133z" />
    <glyph glyph-name="ycircumflex" unicode="&#x177;" horiz-adv-x="991" 
d="M981 1024l-470.998 -1188c-84 -212 -202 -318 -354 -318c-42.667 0 -78.334 4.33301 -107.001 13v147c35.333 -12 67.666 -18 96.999 -18c82.667 0 144.667 49.333 186 148l82 194l-400 1022h182l277 -788c3.33301 -10 10.333 -36 21 -78h6c3.33301 16 10 41.333 20 76
l291 790h170zM796.002 1218h-122l-164 230l-165 -230h-113l215 332h133z" />
    <glyph glyph-name="Ydieresis" unicode="&#x178;" horiz-adv-x="1132" 
d="M1120 1434l-473.001 -904v-530h-168v526l-461 908h191l321 -648c4 -8 15.667 -37.333 35 -88h3c6.66699 22.667 19.334 52 38.001 88l336 648h178zM758.999 1565c-26.667 0 -49.668 9.33105 -69.001 27.998s-29 42.334 -29 71.001c0 28 9.33301 51.333 28 70
s41.334 28 68.001 28c28 0 51.667 -9.5 71 -28.5s29 -42.167 29 -69.5s-9.33301 -50.666 -28 -69.999s-42 -29 -70 -29zM374.998 1565c-28 0 -51.833 9.83105 -71.5 29.498s-29.5 42.834 -29.5 69.501c0 28 9.5 51.333 28.5 70s42.167 28 69.5 28s51 -9.5 71 -28.5
s30 -42.167 30 -69.5s-9.66699 -50.666 -29 -69.999s-42.333 -29 -69 -29z" />
    <glyph glyph-name="Zacute" unicode="&#x179;" horiz-adv-x="1168" 
d="M1124 1394l-840 -1242h820v-152h-1071v47l833 1235h-766v152h1024v-40zM868 1895l-262 -328h-127l223 328h166z" />
    <glyph glyph-name="zacute" unicode="&#x17a;" horiz-adv-x="926" 
d="M880 977l-606 -837h600v-140h-841v51l606 833h-549v140h790v-47zM723 1546l-262 -328h-127l223 328h166z" />
    <glyph glyph-name="Zdotaccent" unicode="&#x17b;" horiz-adv-x="1168" 
d="M1124 1394l-840 -1242h820v-152h-1071v47l833 1235h-766v152h1024v-40zM594 1566c-26.667 0 -49.832 9.49707 -69.499 28.4971s-29.5 42.5 -29.5 70.5c0 26.667 9.66699 49.334 29 68.001s42.666 28 69.999 28s50.5 -9.16699 69.5 -27.5s28.5 -41.166 28.5 -68.499
s-9.5 -50.666 -28.5 -69.999s-42.167 -29 -69.5 -29z" />
    <glyph glyph-name="zdotaccent" unicode="&#x17c;" horiz-adv-x="926" 
d="M880 977l-606 -837h600v-140h-841v51l606 833h-549v140h790v-47zM486 1218c-26.667 0 -49.832 9.49707 -69.499 28.4971s-29.5 42.5 -29.5 70.5c0 26.667 9.66699 49.334 29 68.001s42.666 28 69.999 28s50.5 -9.16699 69.5 -27.5s28.5 -41.166 28.5 -68.499
s-9.5 -50.666 -28.5 -69.999s-42.167 -29 -69.5 -29z" />
    <glyph glyph-name="Zcaron" unicode="&#x17d;" horiz-adv-x="1168" 
d="M1124 1394l-840 -1242h820v-152h-1071v47l833 1235h-766v152h1024v-40zM900 1895l-214 -330h-132l-216 330h115l164 -229l164 229h119z" />
    <glyph glyph-name="zcaron" unicode="&#x17e;" horiz-adv-x="926" 
d="M880 977l-606 -837h600v-140h-841v51l606 833h-549v140h790v-47zM782 1548l-214 -330h-132l-216 330h115l164 -229l164 229h119z" />
    <glyph glyph-name="uni0181" unicode="&#x181;" horiz-adv-x="1256" 
d="M270 0v1282h-24c-54 0 -95.833 -15.5 -125.5 -46.5s-44.5 -72.167 -44.5 -123.5c0 -36.667 6.66699 -72 20 -106h-158c-14.667 37.333 -22 78 -22 122c0 88 32.5 161 97.5 219s151.167 87 258.5 87h406c124 0 222.333 -30.333 295 -91s109 -139.667 109 -237
c0 -81.333 -22 -152 -66 -212s-104.667 -102.667 -182 -128v-4c96.667 -11.333 174 -47.833 232 -109.5s87 -141.834 87 -240.501c0 -122.667 -44 -222 -132 -298s-199 -114 -333 -114h-418zM438 1282v-463h172c92 0 164.167 22.167 216.5 66.5s78.5 106.833 78.5 187.5
c0 139.333 -91.333 209 -274 209h-193zM438 668.001v-516h228c98.667 0 175.167 23.333 229.5 70s81.5 110.667 81.5 192c0 169.333 -115.333 254 -346 254h-193z" />
    <glyph glyph-name="uni0186" unicode="&#x186;" horiz-adv-x="1270" 
d="M106 35l-0.000976562 178c102.667 -57.333 216 -86 340 -86c164 0 297.333 55.167 400 165.5s154 257.166 154 440.499c0 175.333 -47.833 314.666 -143.5 417.999s-221.5 155 -377.5 155c-144 0 -268.333 -32 -373 -96v164c106 56 238 84 396 84
c203.333 0 366.5 -65.667 489.5 -197s184.5 -303.666 184.5 -516.999c0 -229.333 -68.667 -414.666 -206 -555.999s-312.666 -212 -525.999 -212c-136 0 -248.667 19.667 -338 59z" />
    <glyph glyph-name="uni0187" unicode="&#x187;" horiz-adv-x="1270" 
d="M1346 1508c-28 13.333 -53.998 20 -77.998 20c-75.333 0 -113 -52.667 -113 -158c0 -40 5 -89.333 15 -148l-9 -6c-110 60 -226 90 -348 90c-160.667 0 -291.334 -55.167 -392.001 -165.5s-151 -257.166 -151 -440.499c0 -174.667 47.833 -313.834 143.5 -417.501
s221.167 -155.5 376.5 -155.5c144 0 268.667 32 374 96v-163c-106 -56 -238 -84 -396 -84c-204 0 -367.333 65.667 -490 197s-184 303.666 -184 516.999c0 228.667 68.667 413.834 206 555.501s312 212.5 524 212.5c61.333 0 123.333 -8 186 -24
c2 63.333 25.167 118 69.5 164s101.166 69 170.499 69c32 0 64 -6.33301 96 -19v-140z" />
    <glyph glyph-name="uni0188" unicode="&#x188;" horiz-adv-x="954" 
d="M1038 1090c-23.333 12 -45.6689 17.998 -67.002 17.998c-67.333 0 -101 -47.333 -101 -142c0 -56 2.66699 -99.333 8 -130l-6 -4c-98 52 -188.667 78 -272 78c-99.333 0 -180.166 -37.167 -242.499 -111.5s-93.5 -173.166 -93.5 -296.499c0 -120 31.5 -214.667 94.5 -284
s147.5 -104 253.5 -104c89.333 0 173.333 29.667 252 89v-156c-78.667 -47.333 -172 -71 -280 -71c-147.333 0 -265.5 47.833 -354.5 143.5s-133.5 219.834 -133.5 372.501c0 159.333 47 291.833 141 397.5s215.667 158.5 365 158.5c50 0 96.667 -6.66699 140 -20
c1.33301 58 21.833 107.333 61.5 148s89.167 61 148.5 61c26.667 0 55.334 -6.33301 86.001 -19v-128z" />
    <glyph glyph-name="uni0189" unicode="&#x189;" horiz-adv-x="1436" 
d="M188 0l-0.000976562 641.001h-160v155h160v638h396c505.333 0 758 -233 758 -699c0 -222.667 -70.167 -400.834 -210.5 -534.501s-328.166 -200.5 -563.499 -200.5h-380zM355.999 1282v-486.001h336v-155h-336v-489h214c188 0 334.333 50.333 439 151
s157 243.334 157 428.001c0 367.333 -195.333 551 -586 551h-224z" />
    <glyph glyph-name="uni018A" unicode="&#x18a;" horiz-adv-x="1518" 
d="M270 0v1282h-24c-54 0 -95.833 -15.5 -125.5 -46.5s-44.5 -72.167 -44.5 -123.5c0 -36.667 6.66699 -72 20 -106h-158c-14.667 37.333 -22 78 -22 122c0 88 32.5 161 97.5 219s151.167 87 258.5 87h394c505.333 0 758 -233 758 -699
c0 -221.333 -70.167 -399.166 -210.5 -533.499s-328.5 -201.5 -564.5 -201.5h-379zM438 1282v-1130h214c188 0 334.167 50.333 438.5 151s156.5 243.334 156.5 428.001c0 367.333 -195 551 -585 551h-224z" />
    <glyph glyph-name="uni018E" unicode="&#x18e;" horiz-adv-x="1038" 
d="M850 0h-760v152h592v489h-518v151h518v490h-559v152h727v-1434z" />
    <glyph glyph-name="uni018F" unicode="&#x18f;" horiz-adv-x="1476" 
d="M86 794h1118c-11.333 158 -64.166 282.833 -158.499 374.5s-214.166 137.5 -359.499 137.5c-144 0 -268 -32 -372 -96v164c105.333 56 233.333 84 384 84c212.667 0 379.834 -65.667 501.501 -197s182.5 -312.666 182.5 -543.999
c0 -214.667 -60.667 -391.834 -182 -531.501s-282.333 -209.5 -483 -209.5c-202 0 -357.667 69.167 -467 207.5s-164 341.833 -164 610.5zM1204 643l-938.001 0.00195312c2.66699 -156.667 44.334 -281.834 125.001 -375.501s190 -140.5 328 -140.5s250 46.667 336 140
s135.667 218.666 149 375.999z" />
    <glyph glyph-name="uni0190" unicode="&#x190;" horiz-adv-x="1108" 
d="M1012 53c-110.667 -51.333 -235 -76.998 -373 -76.998c-163.333 0 -292 36.833 -386 110.5s-141 171.834 -141 294.501c0 88.667 27 165.667 81 231s129 110.666 225 135.999v6c-170.667 53.333 -256 159 -256 317c0 111.333 45.5 203.666 136.5 276.999
s208.833 110 353.5 110c118.667 0 226.334 -23.333 323.001 -70v-170c-102 58.667 -211.333 88 -328 88c-94 0 -169.333 -21 -226 -63s-85 -98.667 -85 -170c0 -74.667 33.833 -136.334 101.5 -185.001s158.5 -73 272.5 -73h105v-151h-107
c-279.333 0 -419 -90.333 -419 -271c0 -83.333 31.833 -148.5 95.5 -195.5s150.5 -70.5 260.5 -70.5c133.333 0 255.666 30.667 366.999 92v-166z" />
    <glyph glyph-name="uni0191" unicode="&#x191;" horiz-adv-x="1000" 
d="M916 1282h-559.999v-496h518v-151h-518v-582c0 -276.667 -112.667 -415 -338 -415c-43.333 0 -83.333 6.66699 -120 20v160c33.333 -19.333 70.666 -29 111.999 -29c118.667 0 178 88 178 264v1381h728v-152z" />
    <glyph glyph-name="florin" unicode="&#x192;" horiz-adv-x="641" 
d="M672 1372c-32 18 -68.333 27 -109 27c-114.667 0 -172 -72.333 -172 -217v-158h240v-140h-240v-831c0 -139.333 -27.167 -243.333 -81.5 -312s-138.166 -103 -251.499 -103c-42 0 -82 6.66699 -120 20v160c33.333 -19.333 70.666 -29 111.999 -29
c118.667 0 178 88 178 264v831h-175v140h175v166c0 107.333 31 192 93 254c62 62.667 139.333 94 232 94c50 0 89.667 -6 119 -18v-148z" />
    <glyph glyph-name="uni0193" unicode="&#x193;" horiz-adv-x="1417" 
d="M1413 1508c-27.333 13.333 -53 19.999 -77 19.999c-76 0 -114 -56 -114 -168c0 -48 5 -100 15 -156l-8 -6c-127.333 72 -261 108 -401 108c-164 0 -298 -55 -402 -165s-156 -253.667 -156 -431c0 -181.333 47.667 -323.833 143 -427.5s224.666 -155.5 387.999 -155.5
c112 0 209 22.333 291 67v402h-314v152h484v-650c-144 -81.333 -304.667 -122 -482 -122c-204.667 0 -370.167 66 -496.5 198s-189.5 306.667 -189.5 524c0 222 70.167 404.167 210.5 546.5s318.166 213.5 533.499 213.5c80.667 0 160.334 -11.333 239.001 -34
c2 66.667 25.333 123.834 70 171.501s101.334 71.5 170.001 71.5c32 0 64 -6.33301 96 -19v-140z" />
    <glyph glyph-name="uni0194" unicode="&#x194;" horiz-adv-x="1272" 
d="M1254 1434l-514 -1336l6 -12c76 -152 114 -264.667 114 -338c0 -64.667 -22.833 -119.167 -68.5 -163.5s-101.5 -66.5 -167.5 -66.5c-64 0 -117.667 21.667 -161 65s-65 98.333 -65 165c0 40.667 6.83301 80.5 20.5 119.5s46.167 109.833 97.5 212.5l8 16l-506 1338h187
l397 -1092c14 -38.667 23.667 -76 29 -112h4c8.66699 38 19.667 75.333 33 112l405 1092h181zM628 -39c-44.667 -94 -67 -163.667 -67 -209c0 -58.667 22.333 -88 67 -88c45.333 0 68 29.333 68 88c0 45.333 -22.667 115 -68 209z" />
    <glyph glyph-name="uni0196" unicode="&#x196;" horiz-adv-x="590" 
d="M549 4c-40 -14.667 -79.667 -22 -119 -22c-164 0 -246 96.667 -246 290v1162h168v-1158c0 -95.333 34.667 -143 104 -143c32 0 63 7 93 21v-150z" />
    <glyph glyph-name="uni0197" unicode="&#x197;" horiz-adv-x="545" 
d="M496 1434v-144h-140v-485h160v-151h-160v-510h140v-144h-448v144h140v510h-159v151h159v485h-140v144h448z" />
    <glyph glyph-name="uni0198" unicode="&#x198;" horiz-adv-x="1188" 
d="M1186 0l-233.999 -0.000976562l-554 656c-20.667 24.667 -33.334 41.334 -38.001 50.001h-4v-706h-168v1434h168v-674h4l316 420c94 125.333 165.667 203 215 233s104.666 45 165.999 45c37.333 0 74.333 -8.66699 111 -26v-156c-37.333 20 -76.666 30 -117.999 30
c-53.333 0 -119.333 -51 -198 -153l-316 -411z" />
    <glyph glyph-name="uni0199" unicode="&#x199;" horiz-adv-x="1020" 
d="M1016 0h-230l-452 492h-4v-492h-164v1202c0 102 29.833 183.5 89.5 244.5s135.834 91.5 228.501 91.5c47.333 0 86.666 -6 117.999 -18v-148c-36.667 18 -72.667 27 -108 27c-109.333 0 -164 -69 -164 -207v-637h4l430 469h215l-475 -494z" />
    <glyph glyph-name="uni019A" unicode="&#x19a;" horiz-adv-x="496" 
d="M475 708h-145v-708h-164v708h-146v140h146v668h164v-668h145v-140z" />
    <glyph glyph-name="uni019D" unicode="&#x19d;" horiz-adv-x="1532" 
d="M1346 0l-207.999 0.00195312l-738 1143c-18.667 28.667 -34 58.667 -46 90h-6c5.33301 -30.667 8 -96.334 8 -197.001v-983c0 -276.667 -112.667 -415 -338 -415c-43.333 0 -83.333 6.66699 -120 20v160c33.333 -19.333 70.666 -29 111.999 -29c118.667 0 178 88 178 264
v1381h218l718 -1125c30 -46.667 49.333 -78.667 58 -96h4c-6.66699 41.333 -10 111.666 -10 210.999v1010h170v-1434z" />
    <glyph glyph-name="uni019E" unicode="&#x19e;" horiz-adv-x="1178" 
d="M1016 -404l-166 -0.000976562v976c0 218 -78.667 327 -236 327c-83.333 0 -151.5 -29.5 -204.5 -88.5s-79.5 -133.167 -79.5 -222.5v-588h-164v694c0 159.333 -11.667 269.333 -35 330h168c18 -47.333 27 -105.333 27 -174h4c74.667 132 188 198 340 198
c111.333 0 196.833 -35.667 256.5 -107s89.5 -174.666 89.5 -309.999v-1035z" />
    <glyph glyph-name="uni019F" unicode="&#x19f;" horiz-adv-x="1544" 
d="M766 -24c-203.333 0 -366.168 66.999 -488.501 200.999s-183.5 308.333 -183.5 523c0 230.667 62.333 414.667 187 552s294.334 206 509.001 206c198 0 357.5 -66.667 478.5 -200s181.5 -307.666 181.5 -522.999c0 -234 -62 -419 -186 -555s-290 -204 -498 -204z
M1272 791.999c-12.667 164 -62.167 290.667 -148.5 380s-201.5 134 -345.5 134c-138.667 0 -253.667 -46.667 -345 -140s-144.333 -218 -159 -374h998zM1272 636.999h-997.999c14 -156 65.667 -280 155 -372s201.666 -138 336.999 -138c146.667 0 264.5 44.5 353.5 133.5
s139.833 214.5 152.5 376.5z" />
    <glyph glyph-name="uni01A4" unicode="&#x1a4;" horiz-adv-x="1231" 
d="M438 542l0.000976562 -542h-168v1282h-24c-54 0 -95.833 -15.5 -125.5 -46.5s-44.5 -72.167 -44.5 -123.5c0 -36.667 6.66699 -72 20 -106h-158c-14.667 37.333 -22 78 -22 122c0 88 32.5 161 97.5 219s151.167 87 258.5 87h392c153.333 0 272.166 -37.5 356.499 -112.5
s126.5 -180.167 126.5 -315.5s-47 -246.5 -141 -333.5s-220.667 -130.5 -380 -130.5h-188zM438.001 1282v-588h176c238 0 357 101.333 357 304c0 189.333 -112 284 -336 284h-197z" />
    <glyph glyph-name="uni01A5" unicode="&#x1a5;" horiz-adv-x="1204" 
d="M334 148l-3.99707 0.000976562v-619h-164v1673c0 101.333 29.667 182.666 89 243.999s135.666 92 228.999 92c47.333 0 86.666 -6 117.999 -18v-148c-36.667 18 -72.667 27 -108 27c-109.333 0 -164 -69 -164 -207v-348h4c78.667 136 196.667 204 354 204
c131.333 0 234.166 -45.5 308.499 -136.5s111.5 -214.167 111.5 -369.5c0 -171.333 -41.667 -308.5 -125 -411.5s-197.333 -154.5 -342 -154.5c-134 0 -236.333 57.333 -307 172zM330.003 561.001l0.000976562 -143c0 -84 27.5 -155.667 82.5 -215s124.833 -89 209.5 -89
c99.333 0 177.166 37.833 233.499 113.5s84.5 181.5 84.5 317.5c0 114 -26.333 203.333 -79 268s-124 97 -214 97c-95.333 0 -172 -33 -230 -99s-87 -149.333 -87 -250z" />
    <glyph glyph-name="uni01A9" unicode="&#x1a9;" horiz-adv-x="1057" 
d="M1008 0h-963v78l467 662l-424 604v90h858v-154h-612l376 -536l-417 -596h715v-148z" />
    <glyph glyph-name="uni01AC" unicode="&#x1ac;" horiz-adv-x="1075" 
d="M1036 1282l-414 -0.000976562v-1282h-168v1282h-155c-60 0 -106.833 -15.333 -140.5 -46s-50.5 -72 -50.5 -124c0 -36.667 7 -72 21 -106h-157c-15.333 37.333 -23 78 -23 122c0 88.667 32.333 161.834 97 219.501s151 86.5 259 86.5h731v-152z" />
    <glyph glyph-name="uni01AD" unicode="&#x1ad;" horiz-adv-x="696" 
d="M641 10c-38.667 -21.333 -89.665 -32 -152.998 -32c-179.333 0 -269 100 -269 300v606h-176v140h176v192c0 98 25.333 176.167 76 234.5s119.667 87.5 207 87.5c49.333 0 95.666 -9.33301 138.999 -28v-146c-40.667 23.333 -82.334 35 -125.001 35
c-88.667 0 -133 -63.667 -133 -191v-184h258v-140h-258v-577c0 -68.667 11.5 -117.667 34.5 -147s61.833 -44 116.5 -44c40 0 75.667 11.333 107 34v-140z" />
    <glyph glyph-name="uni01AE" unicode="&#x1ae;" horiz-adv-x="1075" 
d="M1036 1282h-414.001v-1229c0 -176 56.667 -264 170 -264c46.667 0 87.334 7.66699 122.001 23v-148c-38.667 -17.333 -84 -26 -136 -26c-216 0 -324 135 -324 405v1239h-415v152h997v-152z" />
    <glyph glyph-name="uni01B1" unicode="&#x1b1;" horiz-adv-x="1546" 
d="M446 1286l-347.998 -0.00195312v148h518v-148c-229.333 -169.333 -344 -380 -344 -632c0 -164.667 46.167 -294 138.5 -388s212.166 -141 359.499 -141c149.333 0 270.666 47.333 363.999 142s140 223.667 140 387c0 250.667 -115.333 461.334 -346 632.001v148h518v-148
h-346c232 -157.333 348 -369.666 348 -636.999c0 -206.667 -61.667 -370.5 -185 -491.5s-286.333 -181.5 -489 -181.5c-204.667 0 -368.5 59.667 -491.5 179s-184.5 283.333 -184.5 492c0 268.667 116 481.667 348 639z" />
    <glyph glyph-name="uni01B2" unicode="&#x1b2;" horiz-adv-x="1458" 
d="M184 1434l168 -0.000976562v-852c0 -303.333 114.667 -455 344 -455c144.667 0 263.5 66.833 356.5 200.5s139.5 298.167 139.5 493.5c0 323.333 -88 485 -264 485c-48 0 -93.333 -9.33301 -136 -28v154c51.333 17.333 106 26 164 26c124 0 223 -56.5 297 -169.5
s111 -264.5 111 -454.5c0 -239.333 -63.833 -442.166 -191.5 -608.499s-289.167 -249.5 -484.5 -249.5c-336 0 -504 199.333 -504 598v860z" />
    <glyph glyph-name="uni01B3" unicode="&#x1b3;" horiz-adv-x="1166" 
d="M1249 1278c-30.667 18.667 -65.6631 27.999 -104.996 27.999c-28 0 -56 -11.667 -84 -35s-54.333 -58.666 -79 -105.999l-334 -635v-530h-168v526l-461 908h191l321 -648c2 -4 6 -13.333 12 -28s14.667 -34.667 26 -60c3.33301 11.333 8.16602 24.333 14.499 39
s14.166 31 23.499 49l209 410c24.667 48 48.5 89 71.5 123s46.167 60.667 69.5 80c47.333 39.333 106.666 59 177.999 59c37.333 0 75.666 -8 114.999 -24v-156z" />
    <glyph glyph-name="uni01B4" unicode="&#x1b4;" horiz-adv-x="1059" 
d="M1120 889c-29.333 12.667 -58.667 19 -88 19c-68 0 -124 -56 -168 -168l-354 -904c-83.333 -212 -201.333 -318 -354 -318c-44 0 -79.667 4.33301 -107 13v147c34 -12 66.333 -18 97 -18c82.667 0 144.667 49.333 186 148l82 194l-400 1022h182l277 -788
c6.66699 -18.667 13.667 -44.667 21 -78h6c3.33301 17.333 10 43.333 20 78l192 518c72.667 196 178.667 294 318 294c27.333 0 57.333 -5.33301 90 -16v-143z" />
    <glyph glyph-name="uni01B5" unicode="&#x1b5;" horiz-adv-x="1168" 
d="M1124 1394l-399 -589h252v-151h-355l-338 -502h820v-152h-1071v47l409 607h-227v151h330l321 477h-768v152h1026v-40z" />
    <glyph glyph-name="uni01B6" unicode="&#x1b6;" horiz-adv-x="926" 
d="M880 977l-276 -381h188v-140h-288l-230 -316h600v-140h-841v51l295 405h-168v140h268l211 288h-549v140h790v-47z" />
    <glyph glyph-name="uni01B7" unicode="&#x1b7;" horiz-adv-x="1250" 
d="M10 -375v180.999c149.333 -90.667 298 -136 446 -136c155.333 0 281.333 39.833 378 119.5s145 183.167 145 310.5c0 136 -50.5 241.667 -151.5 317s-240.167 113 -417.5 113h-92v76l501 676h-780v152h1026v-76l-510 -686c182 -15.333 327.5 -73.666 436.5 -174.999
s163.5 -231.666 163.5 -390.999c0 -170.667 -66.833 -311.334 -200.5 -422.001s-300.5 -166 -500.5 -166c-154.667 0 -302.667 35.667 -444 107z" />
    <glyph glyph-name="uni01B8" unicode="&#x1b8;" horiz-adv-x="1250" 
d="M1239 -375c-142 -71.333 -297 -107.001 -465 -107.001c-199.333 0 -362.5 53 -489.5 159s-190.5 245 -190.5 417c0 156.667 55.667 288.334 167 395.001s255.666 167.667 432.999 183l-510 686v76h1026v-152h-778l500 -676v-76h-92c-176 0 -315 -38.167 -417 -114.5
s-153 -181.5 -153 -315.5c0 -127.333 48.333 -230.833 145 -310.5s222.334 -119.5 377.001 -119.5c160 0 309 41.667 447 125v-170z" />
    <glyph glyph-name="uni01B9" unicode="&#x1b9;" horiz-adv-x="905" 
d="M938 -398c-102.667 -54 -221.332 -81 -355.999 -81c-162.667 0 -295.334 41.5 -398.001 124.5s-154 192.5 -154 328.5c0 117.333 41.167 217.833 123.5 301.5s192.5 135.167 330.5 154.5l-394 543v51h813v-140h-571l378 -532v-51h-84c-133.333 0 -238 -28.5 -314 -85.5
s-114 -135.5 -114 -235.5c0 -94 36.333 -170.833 109 -230.5s165.667 -89.5 279 -89.5c130.667 0 248 32.667 352 98v-156z" />
    <glyph glyph-name="uni01C0" unicode="&#x1c0;" horiz-adv-x="490" 
d="M320 -482h-148v2048h148v-2048z" />
    <glyph glyph-name="uni01C1" unicode="&#x1c1;" horiz-adv-x="784" 
d="M614 -482h-147v2048h147v-2048zM320 -482h-148v2048h148v-2048z" />
    <glyph glyph-name="uni01C2" unicode="&#x1c2;" horiz-adv-x="934" 
d="M882 326h-342v-808h-147v808h-342v139h342v279h-342v138h342v684h147v-684h342v-138h-342v-279h342v-139z" />
    <glyph glyph-name="uni01C3" unicode="&#x1c3;" horiz-adv-x="582" 
d="M375 1434l-19 -1030h-135l-18 1030h172zM291 -18c-30.667 0 -56.834 10.667 -78.501 32s-32.5 47.333 -32.5 78s10.833 56.834 32.5 78.501s47.834 32.5 78.501 32.5c30 0 56 -10.833 78 -32.5s33 -47.834 33 -78.501s-11 -56.667 -33 -78s-48 -32 -78 -32z" />
    <glyph glyph-name="uni01CD" unicode="&#x1cd;" horiz-adv-x="1321" 
d="M1298 0h-186l-152 402h-608l-143 -402h-187l550 1434h174zM905 553l-225 611c-7.33301 20 -14.666 52 -21.999 96h-4c-6.66699 -40.667 -14.334 -72.667 -23.001 -96l-223 -611h497zM938 1890l-214 -330h-132l-216 330h115l164 -229l164 229h119z" />
    <glyph glyph-name="uni01CE" unicode="&#x1ce;" horiz-adv-x="1034" 
d="M892 0l-164.001 0.000976562v160h-4c-71.333 -122.667 -176.333 -184 -315 -184c-102 0 -181.833 27 -239.5 81s-86.5 125.667 -86.5 215c0 191.333 112.667 302.666 338 333.999l307 43c0 174 -70.333 261 -211 261c-123.333 0 -234.666 -42 -333.999 -126v168
c100.667 64 216.667 96 348 96c240.667 0 361 -127.333 361 -382v-666zM727.999 518.001l-247 -34c-76 -10.667 -133.333 -29.5 -172 -56.5s-58 -74.833 -58 -143.5c0 -50 17.833 -90.833 53.5 -122.5s83.167 -47.5 142.5 -47.5c81.333 0 148.5 28.5 201.5 85.5
s79.5 129.167 79.5 216.5v102zM790.999 1548l-214 -330h-132l-216 330h115l164 -229l164 229h119z" />
    <glyph glyph-name="uni01CF" unicode="&#x1cf;" horiz-adv-x="545" 
d="M496 1434v-144h-140v-1146h140v-144h-448v144h140v1146h-140v144h448zM554 1890l-214 -330h-132l-216 330h115l164 -229l164 229h119z" />
    <glyph glyph-name="uni01D0" unicode="&#x1d0;" horiz-adv-x="496" 
d="M330 0h-164v1024h164v-1024zM530 1548l-214 -330h-132l-216 330h115l164 -229l164 229h119z" />
    <glyph glyph-name="uni01D1" unicode="&#x1d1;" horiz-adv-x="1544" 
d="M766 -24c-203.333 0 -366.168 66.999 -488.501 200.999s-183.5 308.333 -183.5 523c0 230.667 62.333 414.667 187 552s294.334 206 509.001 206c198 0 357.5 -66.667 478.5 -200s181.5 -307.666 181.5 -522.999c0 -234 -62 -419 -186 -555s-290 -204 -498 -204z
M777.998 1306c-150.667 0 -273 -54.3311 -367 -162.998s-141 -251.334 -141 -428.001s45.833 -318.834 137.5 -426.501s211.167 -161.5 358.5 -161.5c157.333 0 281.333 51.333 372 154s136 246.334 136 431.001c0 189.333 -44 335.666 -132 438.999s-209.333 155 -364 155z
M1053 1890l-214 -330h-132l-216 330h115l164 -229l164 229h119z" />
    <glyph glyph-name="uni01D2" unicode="&#x1d2;" horiz-adv-x="1200" 
d="M594 -24c-151.333 0 -272.169 47.832 -362.502 143.499s-135.5 222.5 -135.5 380.5c0 172 47 306.333 141 403s221 145 381 145c152.667 0 271.834 -47 357.501 -141s128.5 -224.333 128.5 -391c0 -163.333 -46.167 -294.166 -138.5 -392.499
s-216.166 -147.5 -371.499 -147.5zM605.997 909.999c-105.333 0 -188.667 -35.834 -250 -107.501s-92 -170.5 -92 -296.5c0 -121.333 31 -217 93 -287s145 -105 249 -105c106 0 187.5 34.333 244.5 103s85.5 166.334 85.5 293.001c0 128 -28.5 226.667 -85.5 296
s-138.5 104 -244.5 104zM880.996 1548l-214 -330h-132l-216 330h115l164 -229l164 229h119z" />
    <glyph glyph-name="uni01D3" unicode="&#x1d3;" horiz-adv-x="1407" 
d="M1237 580c0 -402.667 -181.667 -604 -545 -604c-348 0 -522 193.667 -522 581v877h168v-866c0 -294 124 -441 372 -441c239.333 0 359 142 359 426v881h168v-854zM985 1890l-214 -330h-132l-216 330h115l164 -229l164 229h119z" />
    <glyph glyph-name="uni01D4" unicode="&#x1d4;" horiz-adv-x="1159" 
d="M994 0h-164v162h-4c-68 -124 -173.333 -186 -316 -186c-244 0 -366 145.333 -366 436v612h163v-586c0 -216 82.667 -324 248 -324c80 0 145.833 29.5 197.5 88.5s77.5 136.167 77.5 231.5v590h164v-1024zM860 1548l-214 -330h-132l-216 330h115l164 -229l164 229h119z
" />
    <glyph glyph-name="uni01D5" unicode="&#x1d5;" horiz-adv-x="1407" 
d="M1237 580c0 -402.667 -181.667 -604 -545 -604c-348 0 -522 193.667 -522 581v877h168v-866c0 -294 124 -441 372 -441c239.333 0 359 142 359 426v881h168v-854zM895 1567c-26.667 0 -49.668 9.33105 -69.001 27.998s-29 42.334 -29 71.001c0 28 9.33301 51.333 28 70
s41.334 28 68.001 28c28 0 51.667 -9.5 71 -28.5s29 -42.167 29 -69.5s-9.33301 -50.666 -28 -69.999s-42 -29 -70 -29zM510.999 1567c-28 0 -51.833 9.83105 -71.5 29.498s-29.5 42.834 -29.5 69.501c0 28 9.5 51.333 28.5 70s42.167 28 69.5 28s51 -9.5 71 -28.5
s30 -42.167 30 -69.5s-9.66699 -50.666 -29 -69.999s-42.333 -29 -69 -29zM955.999 1837h-508v109h508v-109z" />
    <glyph glyph-name="uni01D6" unicode="&#x1d6;" horiz-adv-x="1159" 
d="M994 0h-164v162h-4c-68 -124 -173.333 -186 -316 -186c-244 0 -366 145.333 -366 436v612h163v-586c0 -216 82.667 -324 248 -324c80 0 145.833 29.5 197.5 88.5s77.5 136.167 77.5 231.5v590h164v-1024zM770 1218c-26.667 0 -49.668 9.33105 -69.001 27.998
s-29 42.334 -29 71.001c0 28 9.33301 51.333 28 70s41.334 28 68.001 28c28 0 51.667 -9.5 71 -28.5s29 -42.167 29 -69.5s-9.33301 -50.666 -28 -69.999s-42 -29 -70 -29zM385.999 1218c-28 0 -51.833 9.83105 -71.5 29.498s-29.5 42.834 -29.5 69.501
c0 28 9.5 51.333 28.5 70s42.167 28 69.5 28s51 -9.5 71 -28.5s30 -42.167 30 -69.5s-9.66699 -50.666 -29 -69.999s-42.333 -29 -69 -29zM829.999 1485h-508v109h508v-109z" />
    <glyph glyph-name="uni01D7" unicode="&#x1d7;" horiz-adv-x="1407" 
d="M1237 580c0 -402.667 -181.667 -604 -545 -604c-348 0 -522 193.667 -522 581v877h168v-866c0 -294 124 -441 372 -441c239.333 0 359 142 359 426v881h168v-854zM895 1567c-26.667 0 -49.668 9.33105 -69.001 27.998s-29 42.334 -29 71.001c0 28 9.33301 51.333 28 70
s41.334 28 68.001 28c28 0 51.667 -9.5 71 -28.5s29 -42.167 29 -69.5s-9.33301 -50.666 -28 -69.999s-42 -29 -70 -29zM510.999 1567c-28 0 -51.833 9.83105 -71.5 29.498s-29.5 42.834 -29.5 69.501c0 28 9.5 51.333 28.5 70s42.167 28 69.5 28s51 -9.5 71 -28.5
s30 -42.167 30 -69.5s-9.66699 -50.666 -29 -69.999s-42.333 -29 -69 -29zM1015 2115l-262 -328h-127l223 328h166z" />
    <glyph glyph-name="uni01D8" unicode="&#x1d8;" horiz-adv-x="1159" 
d="M994 0h-164v162h-4c-68 -124 -173.333 -186 -316 -186c-244 0 -366 145.333 -366 436v612h163v-586c0 -216 82.667 -324 248 -324c80 0 145.833 29.5 197.5 88.5s77.5 136.167 77.5 231.5v590h164v-1024zM764 1218c-26.667 0 -49.668 9.33105 -69.001 27.998
s-29 42.334 -29 71.001c0 28 9.33301 51.333 28 70s41.334 28 68.001 28c28 0 51.667 -9.5 71 -28.5s29 -42.167 29 -69.5s-9.33301 -50.666 -28 -69.999s-42 -29 -70 -29zM379.999 1218c-28 0 -51.833 9.83105 -71.5 29.498s-29.5 42.834 -29.5 69.501
c0 28 9.5 51.333 28.5 70s42.167 28 69.5 28s51 -9.5 71 -28.5s30 -42.167 30 -69.5s-9.66699 -50.666 -29 -69.999s-42.333 -29 -69 -29zM889.999 1766l-262 -328h-127l223 328h166z" />
    <glyph glyph-name="uni01D9" unicode="&#x1d9;" horiz-adv-x="1407" 
d="M1237 580c0 -402.667 -181.667 -604 -545 -604c-348 0 -522 193.667 -522 581v877h168v-866c0 -294 124 -441 372 -441c239.333 0 359 142 359 426v881h168v-854zM895 1567c-26.667 0 -49.668 9.33105 -69.001 27.998s-29 42.334 -29 71.001c0 28 9.33301 51.333 28 70
s41.334 28 68.001 28c28 0 51.667 -9.5 71 -28.5s29 -42.167 29 -69.5s-9.33301 -50.666 -28 -69.999s-42 -29 -70 -29zM510.999 1567c-28 0 -51.833 9.83105 -71.5 29.498s-29.5 42.834 -29.5 69.501c0 28 9.5 51.333 28.5 70s42.167 28 69.5 28s51 -9.5 71 -28.5
s30 -42.167 30 -69.5s-9.66699 -50.666 -29 -69.999s-42.333 -29 -69 -29zM990.999 2138l-214 -330h-132l-216 330h115l164 -229l164 229h119z" />
    <glyph glyph-name="uni01DA" unicode="&#x1da;" horiz-adv-x="1159" 
d="M994 0h-164v162h-4c-68 -124 -173.333 -186 -316 -186c-244 0 -366 145.333 -366 436v612h163v-586c0 -216 82.667 -324 248 -324c80 0 145.833 29.5 197.5 88.5s77.5 136.167 77.5 231.5v590h164v-1024zM770 1218c-26.667 0 -49.668 9.33105 -69.001 27.998
s-29 42.334 -29 71.001c0 28 9.33301 51.333 28 70s41.334 28 68.001 28c28 0 51.667 -9.5 71 -28.5s29 -42.167 29 -69.5s-9.33301 -50.666 -28 -69.999s-42 -29 -70 -29zM385.999 1218c-28 0 -51.833 9.83105 -71.5 29.498s-29.5 42.834 -29.5 69.501
c0 28 9.5 51.333 28.5 70s42.167 28 69.5 28s51 -9.5 71 -28.5s30 -42.167 30 -69.5s-9.66699 -50.666 -29 -69.999s-42.333 -29 -69 -29zM856.999 1788l-214 -330h-132l-216 330h115l164 -229l164 229h119z" />
    <glyph glyph-name="uni01DB" unicode="&#x1db;" horiz-adv-x="1407" 
d="M1237 580c0 -402.667 -181.667 -604 -545 -604c-348 0 -522 193.667 -522 581v877h168v-866c0 -294 124 -441 372 -441c239.333 0 359 142 359 426v881h168v-854zM895 1567c-26.667 0 -49.668 9.33105 -69.001 27.998s-29 42.334 -29 71.001c0 28 9.33301 51.333 28 70
s41.334 28 68.001 28c28 0 51.667 -9.5 71 -28.5s29 -42.167 29 -69.5s-9.33301 -50.666 -28 -69.999s-42 -29 -70 -29zM510.999 1567c-28 0 -51.833 9.83105 -71.5 29.498s-29.5 42.834 -29.5 69.501c0 28 9.5 51.333 28.5 70s42.167 28 69.5 28s51 -9.5 71 -28.5
s30 -42.167 30 -69.5s-9.66699 -50.666 -29 -69.999s-42.333 -29 -69 -29zM782.999 1787h-127l-262 328h168z" />
    <glyph glyph-name="uni01DC" unicode="&#x1dc;" horiz-adv-x="1159" 
d="M994 0h-164v162h-4c-68 -124 -173.333 -186 -316 -186c-244 0 -366 145.333 -366 436v612h163v-586c0 -216 82.667 -324 248 -324c80 0 145.833 29.5 197.5 88.5s77.5 136.167 77.5 231.5v590h164v-1024zM764 1218c-26.667 0 -49.668 9.33105 -69.001 27.998
s-29 42.334 -29 71.001c0 28 9.33301 51.333 28 70s41.334 28 68.001 28c28 0 51.667 -9.5 71 -28.5s29 -42.167 29 -69.5s-9.33301 -50.666 -28 -69.999s-42 -29 -70 -29zM379.999 1218c-28 0 -51.833 9.83105 -71.5 29.498s-29.5 42.834 -29.5 69.501
c0 28 9.5 51.333 28.5 70s42.167 28 69.5 28s51 -9.5 71 -28.5s30 -42.167 30 -69.5s-9.66699 -50.666 -29 -69.999s-42.333 -29 -69 -29zM651.999 1438h-127l-262 328h168z" />
    <glyph glyph-name="uni01DD" unicode="&#x1dd;" horiz-adv-x="1071" 
d="M82 553l722.998 0.000976562c-3.33301 114 -34 202 -92 264s-138.667 93 -242 93c-115.333 0 -221 -38 -317 -114v154c89.333 65.333 208 98 356 98c144.667 0 258.334 -46.5 341.001 -139.5s124 -223.833 124 -392.5c0 -160.667 -45.167 -290.834 -135.5 -390.501
s-202.166 -149.5 -335.499 -149.5c-135.333 0 -239.5 43.667 -312.5 131s-109.5 207.333 -109.5 360v86zM802.998 414.001h-553c1.33301 -95.333 24.333 -169.166 69 -221.499s107 -78.5 187 -78.5c77.333 0 143 27.667 197 83s87.333 127.666 100 216.999z" />
    <glyph glyph-name="uni01DE" unicode="&#x1de;" horiz-adv-x="1321" 
d="M1298 0h-186l-152 402h-608l-143 -402h-187l550 1434h174zM905 553l-225 611c-7.33301 20 -14.666 52 -21.999 96h-4c-6.66699 -40.667 -14.334 -72.667 -23.001 -96l-223 -611h497zM840 1565c-26.667 0 -49.668 9.33105 -69.001 27.998s-29 42.334 -29 71.001
c0 28 9.33301 51.333 28 70s41.334 28 68.001 28c28 0 51.667 -9.5 71 -28.5s29 -42.167 29 -69.5s-9.33301 -50.666 -28 -69.999s-42 -29 -70 -29zM455.999 1565c-28 0 -51.833 9.83105 -71.5 29.498s-29.5 42.834 -29.5 69.501c0 28 9.5 51.333 28.5 70s42.167 28 69.5 28
s51 -9.5 71 -28.5s30 -42.167 30 -69.5s-9.66699 -50.666 -29 -69.999s-42.333 -29 -69 -29zM904.999 1837h-508v109h508v-109z" />
    <glyph glyph-name="uni01DF" unicode="&#x1df;" horiz-adv-x="1042" 
d="M899 0l-164.001 0.000976562v160h-4c-71.333 -122.667 -176.333 -184 -315 -184c-102 0 -181.833 27 -239.5 81s-86.5 125.667 -86.5 215c0 191.333 112.667 302.666 338 333.999l307 43c0 174 -70.333 261 -211 261c-123.333 0 -234.666 -42 -333.999 -126v168
c100.667 64 216.667 96 348 96c240.667 0 361 -127.333 361 -382v-666zM734.999 518.001l-247 -34c-76 -10.667 -133.333 -29.5 -172 -56.5s-58 -74.833 -58 -143.5c0 -50 17.833 -90.833 53.5 -122.5s83.167 -47.5 142.5 -47.5c81.333 0 148.5 28.5 201.5 85.5
s79.5 129.167 79.5 216.5v102zM699.999 1218c-26.667 0 -49.668 9.33105 -69.001 27.998s-29 42.334 -29 71.001c0 28 9.33301 51.333 28 70s41.334 28 68.001 28c28 0 51.667 -9.5 71 -28.5s29 -42.167 29 -69.5s-9.33301 -50.666 -28 -69.999s-42 -29 -70 -29z
M315.998 1218c-28 0 -51.833 9.83105 -71.5 29.498s-29.5 42.834 -29.5 69.501c0 28 9.5 51.333 28.5 70s42.167 28 69.5 28s51 -9.5 71 -28.5s30 -42.167 30 -69.5s-9.66699 -50.666 -29 -69.999s-42.333 -29 -69 -29zM764.998 1490h-508v109h508v-109z" />
    <glyph glyph-name="uni01E0" unicode="&#x1e0;" horiz-adv-x="1321" 
d="M1298 0h-186l-152 402h-608l-143 -402h-187l550 1434h174zM905 553l-225 611c-7.33301 20 -14.666 52 -21.999 96h-4c-6.66699 -40.667 -14.334 -72.667 -23.001 -96l-223 -611h497zM662 1575c-26.667 0 -49.832 9.49707 -69.499 28.4971s-29.5 42.5 -29.5 70.5
c0 26.667 9.66699 49.334 29 68.001s42.666 28 69.999 28s50.5 -9.16699 69.5 -27.5s28.5 -41.166 28.5 -68.499s-9.5 -50.666 -28.5 -69.999s-42.167 -29 -69.5 -29zM915.002 1837h-508v109h508v-109z" />
    <glyph glyph-name="uni01E1" unicode="&#x1e1;" horiz-adv-x="1042" 
d="M899 0l-164.001 0.000976562v160h-4c-71.333 -122.667 -176.333 -184 -315 -184c-102 0 -181.833 27 -239.5 81s-86.5 125.667 -86.5 215c0 191.333 112.667 302.666 338 333.999l307 43c0 174 -70.333 261 -211 261c-123.333 0 -234.666 -42 -333.999 -126v168
c100.667 64 216.667 96 348 96c240.667 0 361 -127.333 361 -382v-666zM734.999 518.001l-247 -34c-76 -10.667 -133.333 -29.5 -172 -56.5s-58 -74.833 -58 -143.5c0 -50 17.833 -90.833 53.5 -122.5s83.167 -47.5 142.5 -47.5c81.333 0 148.5 28.5 201.5 85.5
s79.5 129.167 79.5 216.5v102zM518.999 1218c-26.667 0 -49.832 9.49707 -69.499 28.4971s-29.5 42.5 -29.5 70.5c0 26.667 9.66699 49.334 29 68.001s42.666 28 69.999 28s50.5 -9.16699 69.5 -27.5s28.5 -41.166 28.5 -68.499s-9.5 -50.666 -28.5 -69.999
s-42.167 -29 -69.5 -29zM775.001 1490h-508v109h508v-109z" />
    <glyph glyph-name="uni01E2" unicode="&#x1e2;" horiz-adv-x="1762" 
d="M1667 0h-759v402h-510l-193 -402h-195l700 1434h924v-152h-559v-477h519v-151h-519v-502h592v-152zM908 553v729h-95l-346 -729h441zM1428 1567h-508v109h508v-109z" />
    <glyph glyph-name="uni01E3" unicode="&#x1e3;" horiz-adv-x="1696" 
d="M1615 471h-725c2 -114 32.333 -202 91 -264s139 -93 241 -93c118 0 225 38 321 114v-154c-88 -65.333 -207.333 -98 -358 -98c-180 0 -307.667 76.333 -383 229h-4c-96.667 -152.667 -225.667 -229 -387 -229c-102 0 -182.167 26.833 -240.5 80.5
s-87.5 125.5 -87.5 215.5c0 200 127.667 308 383 324l262 16c0 198.667 -71.667 298 -215 298c-116.667 0 -226.667 -40.667 -330 -122v164c98.667 64 214.667 96 348 96c154.667 0 254.667 -66.667 300 -200h4c77.333 133.333 196 200 356 200
c134.667 0 239 -43.5 313 -130.5s111 -207.833 111 -362.5v-84zM1447 610c-1.33301 96 -24.1689 170.001 -68.502 222.001s-106.166 78 -185.499 78c-77.333 0 -143.666 -27.333 -198.999 -82s-89.333 -127.334 -102 -218.001h555zM727.997 410.001l0.000976562 62.999
l-203 -12c-92.667 -5.33301 -161.834 -21.666 -207.501 -48.999s-68.5 -72.666 -68.5 -135.999c0 -48.667 17.667 -87.834 53 -117.501s83 -44.5 143 -44.5c79.333 0 146.333 28.167 201 84.5s82 126.833 82 211.5zM1108 1218h-508v109h508v-109z" />
    <glyph glyph-name="uni01E4" unicode="&#x1e4;" horiz-adv-x="1405" 
d="M1405 305h-144.997v-207c-144 -81.333 -304 -122 -480 -122c-204.667 0 -370.167 66 -496.5 198s-189.5 306.667 -189.5 524c0 222 70.167 404.167 210.5 546.5s318.166 213.5 533.499 213.5c156 0 287 -25.333 393 -76v-186c-116 73.333 -253.333 110 -412 110
c-160.667 0 -292.334 -55.333 -395.001 -166s-154 -254 -154 -430c0 -181.333 47.667 -323.833 143 -427.5s224.666 -155.5 387.999 -155.5c112 0 209 22.333 291 67v111h-312v139h312v152h-314v152h482v-304h145v-139z" />
    <glyph glyph-name="uni01E5" unicode="&#x1e5;" horiz-adv-x="1206" 
d="M1163 418h-123.001v-336c0 -376 -180 -564 -540 -564c-126.667 0 -237.334 24 -332.001 72v164c114.667 -64 224.667 -96 330 -96c252 0 378 134 378 402v112h-4c-78 -130.667 -195.333 -196 -352 -196c-59.333 0 -113.666 10.333 -162.999 31s-92.333 50 -129 88
s-66.167 84.333 -88.5 139s-36.166 116 -41.499 184h-112v134h113c6 76 20.833 144.667 44.5 206s55.5 113.5 95.5 156.5s87.5 76 142.5 99s116.167 34.5 183.5 34.5c138 0 240.333 -55.333 307 -166h4v142h164v-472h123v-134zM875.999 614c0 40 -7.33301 77.833 -22 113.5
s-35 67 -61 94s-56.5 48.5 -91.5 64.5s-72.833 24 -113.5 24c-93.333 0 -168 -31 -224 -93s-88.667 -150.333 -98 -265h610v62zM267.999 418c6 -46 16.9971 -87.834 32.9971 -125.501s36.833 -69.667 62.5 -96s55.334 -46.666 89.001 -60.999s71.167 -21.5 112.5 -21.5
c42.667 0 81.834 7.5 117.501 22.5s67 36 94 63s48.833 59 65.5 96s27.334 77.833 32.001 122.5h-606z" />
    <glyph glyph-name="uni01E6" unicode="&#x1e6;" horiz-adv-x="1405" 
d="M1260 98c-144 -81.333 -303.997 -122 -479.997 -122c-204.667 0 -370.167 66 -496.5 198s-189.5 306.667 -189.5 524c0 222 70.167 404.167 210.5 546.5s318.166 213.5 533.499 213.5c156 0 287 -25.333 393 -76v-186c-116 73.333 -253.333 110 -412 110
c-160.667 0 -292.334 -55.333 -395.001 -166s-154 -254 -154 -430c0 -181.333 47.667 -323.833 143 -427.5s224.666 -155.5 387.999 -155.5c112 0 209 22.333 291 67v402h-314v152h482v-650zM1012 1890l-214 -330h-132l-216 330h115l164 -229l164 229h119z" />
    <glyph glyph-name="uni01E7" unicode="&#x1e7;" horiz-adv-x="1206" 
d="M1040 82c0 -376 -179.999 -564 -539.999 -564c-126.667 0 -237.334 24 -332.001 72v164c115.333 -64 225.333 -96 330 -96c252 0 378 134 378 402v112h-4c-78 -130.667 -195.333 -196 -352 -196c-127.333 0 -229.833 45.5 -307.5 136.5s-116.5 213.167 -116.5 366.5
c0 174 41.833 312.333 125.5 415s198.167 154 343.5 154c138 0 240.333 -55.333 307 -166h4v142h164v-942zM876.001 463l-0.000976562 151.001c0 81.333 -27.5 151 -82.5 209s-123.5 87 -205.5 87c-101.333 0 -180.666 -36.833 -237.999 -110.5s-86 -176.834 -86 -309.501
c0 -114 27.5 -205.167 82.5 -273.5s127.833 -102.5 218.5 -102.5c92 0 166.833 32.667 224.5 98s86.5 149 86.5 251zM858 1548l-214 -330h-132l-216 330h115l164 -229l164 229h119z" />
    <glyph glyph-name="uni01E8" unicode="&#x1e8;" horiz-adv-x="1188" 
d="M1186 0l-233.999 -0.000976562l-554 656c-20.667 24.667 -33.334 41.334 -38.001 50.001h-4v-706h-168v1434h168v-674h4c9.33301 14.667 22 31 38 49l536 625h209l-615 -688zM885.001 1890l-214 -330h-132l-216 330h115l164 -229l164 229h119z" />
    <glyph glyph-name="uni01E9" unicode="&#x1e9;" horiz-adv-x="1018" 
d="M1016 0h-230l-452 492h-4v-492h-164v1516h164v-961h4l430 469h215l-475 -494zM793 1890l-214 -330h-132l-216 330h115l164 -229l164 229h119z" />
    <glyph glyph-name="uni01EA" unicode="&#x1ea;" horiz-adv-x="1544" 
d="M766 -24c-203.333 0 -366.168 66.999 -488.501 200.999s-183.5 308.333 -183.5 523c0 230.667 62.333 414.667 187 552s294.334 206 509.001 206c198 0 357.5 -66.667 478.5 -200s181.5 -307.666 181.5 -522.999c0 -234 -62 -419 -186 -555s-290 -204 -498 -204z
M777.998 1306c-150.667 0 -273 -54.3311 -367 -162.998s-141 -251.334 -141 -428.001s45.833 -318.834 137.5 -426.501s211.167 -161.5 358.5 -161.5c157.333 0 281.333 51.333 372 154s136 246.334 136 431.001c0 189.333 -44 335.666 -132 438.999s-209.333 155 -364 155z
M860.998 0.000976562c-100 -94 -149.999 -168.333 -149.999 -223c0 -46.667 22.667 -70 68 -70c20 0 38.667 4.33301 56 13v-107c-20 -8.66699 -47.333 -13 -82 -13c-50.667 0 -91.334 13.333 -122.001 40s-46 63.334 -46 110.001c0 81.333 52.333 164.666 157 249.999h119z
" />
    <glyph glyph-name="uni01EB" unicode="&#x1eb;" horiz-adv-x="1200" 
d="M594 -24c-151.333 0 -272.169 47.832 -362.502 143.499s-135.5 222.5 -135.5 380.5c0 172 47 306.333 141 403s221 145 381 145c152.667 0 271.834 -47 357.501 -141s128.5 -224.333 128.5 -391c0 -163.333 -46.167 -294.166 -138.5 -392.499
s-216.166 -147.5 -371.499 -147.5zM605.997 909.999c-105.333 0 -188.667 -35.834 -250 -107.501s-92 -170.5 -92 -296.5c0 -121.333 31 -217 93 -287s145 -105 249 -105c106 0 187.5 34.333 244.5 103s85.5 166.334 85.5 293.001c0 128 -28.5 226.667 -85.5 296
s-138.5 104 -244.5 104zM695.996 -0.00195312c-100 -94 -149.999 -168.333 -149.999 -223c0 -46.667 22.667 -70 68 -70c20 0 38.667 4.33301 56 13v-107c-20 -8.66699 -47.333 -13 -82 -13c-50.667 0 -91.334 13.333 -122.001 40s-46 63.334 -46 110.001
c0 81.333 52.333 164.666 157 249.999h119z" />
    <glyph glyph-name="uni01EC" unicode="&#x1ec;" horiz-adv-x="1544" 
d="M766 -24c-203.333 0 -366.168 66.999 -488.501 200.999s-183.5 308.333 -183.5 523c0 230.667 62.333 414.667 187 552s294.334 206 509.001 206c198 0 357.5 -66.667 478.5 -200s181.5 -307.666 181.5 -522.999c0 -234 -62 -419 -186 -555s-290 -204 -498 -204z
M777.998 1306c-150.667 0 -273 -54.3311 -367 -162.998s-141 -251.334 -141 -428.001s45.833 -318.834 137.5 -426.501s211.167 -161.5 358.5 -161.5c157.333 0 281.333 51.333 372 154s136 246.334 136 431.001c0 189.333 -44 335.666 -132 438.999s-209.333 155 -364 155z
M860.998 0.000976562c-100 -94 -149.999 -168.333 -149.999 -223c0 -46.667 22.667 -70 68 -70c20 0 38.667 4.33301 56 13v-107c-20 -8.66699 -47.333 -13 -82 -13c-50.667 0 -91.334 13.333 -122.001 40s-46 63.334 -46 110.001c0 81.333 52.333 164.666 157 249.999h119z
M1036 1567h-508v109h508v-109z" />
    <glyph glyph-name="uni01ED" unicode="&#x1ed;" horiz-adv-x="1200" 
d="M594 -24c-151.333 0 -272.169 47.832 -362.502 143.499s-135.5 222.5 -135.5 380.5c0 172 47 306.333 141 403s221 145 381 145c152.667 0 271.834 -47 357.501 -141s128.5 -224.333 128.5 -391c0 -163.333 -46.167 -294.166 -138.5 -392.499
s-216.166 -147.5 -371.499 -147.5zM605.997 909.999c-105.333 0 -188.667 -35.834 -250 -107.501s-92 -170.5 -92 -296.5c0 -121.333 31 -217 93 -287s145 -105 249 -105c106 0 187.5 34.333 244.5 103s85.5 166.334 85.5 293.001c0 128 -28.5 226.667 -85.5 296
s-138.5 104 -244.5 104zM695.996 -0.00195312c-100 -94 -149.999 -168.333 -149.999 -223c0 -46.667 22.667 -70 68 -70c20 0 38.667 4.33301 56 13v-107c-20 -8.66699 -47.333 -13 -82 -13c-50.667 0 -91.334 13.333 -122.001 40s-46 63.334 -46 110.001
c0 81.333 52.333 164.666 157 249.999h119zM863.997 1218h-508v109h508v-109z" />
    <glyph glyph-name="uni01EE" unicode="&#x1ee;" horiz-adv-x="1250" 
d="M10 -375v180.999c149.333 -90.667 298 -136 446 -136c155.333 0 281.333 39.833 378 119.5s145 183.167 145 310.5c0 136 -50.5 241.667 -151.5 317s-240.167 113 -417.5 113h-92v76l501 676h-780v152h1026v-76l-510 -686c182 -15.333 327.5 -73.666 436.5 -174.999
s163.5 -231.666 163.5 -390.999c0 -170.667 -66.833 -311.334 -200.5 -422.001s-300.5 -166 -500.5 -166c-154.667 0 -302.667 35.667 -444 107zM803 1890l-214 -330h-132l-216 330h115l164 -229l164 229h119z" />
    <glyph glyph-name="uni01EF" unicode="&#x1ef;" horiz-adv-x="905" 
d="M-35 -398v162.001c110 -69.333 224 -104 342 -104c116 0 211.167 30.333 285.5 91s111.5 139 111.5 235c0 99.333 -37 176.666 -111 231.999s-179.667 83 -317 83h-82v51l384 532h-578v140h813v-51l-393 -543c145.333 -17.333 257 -65 335 -143s117 -177 117 -297
c0 -136 -54 -248.167 -162 -336.5s-244.333 -132.5 -409 -132.5c-121.333 0 -233.333 27 -336 81zM657 1548l-214 -330h-132l-216 330h115l164 -229l164 229h119z" />
    <glyph glyph-name="uni01F4" unicode="&#x1f4;" horiz-adv-x="1405" 
d="M1260 98c-144 -81.333 -303.997 -122 -479.997 -122c-204.667 0 -370.167 66 -496.5 198s-189.5 306.667 -189.5 524c0 222 70.167 404.167 210.5 546.5s318.166 213.5 533.499 213.5c156 0 287 -25.333 393 -76v-186c-116 73.333 -253.333 110 -412 110
c-160.667 0 -292.334 -55.333 -395.001 -166s-154 -254 -154 -430c0 -181.333 47.667 -323.833 143 -427.5s224.666 -155.5 387.999 -155.5c112 0 209 22.333 291 67v402h-314v152h482v-650zM1075 1896l-262 -328h-127l223 328h166z" />
    <glyph glyph-name="uni01F5" unicode="&#x1f5;" horiz-adv-x="1206" 
d="M1040 82c0 -376 -179.999 -564 -539.999 -564c-126.667 0 -237.334 24 -332.001 72v164c115.333 -64 225.333 -96 330 -96c252 0 378 134 378 402v112h-4c-78 -130.667 -195.333 -196 -352 -196c-127.333 0 -229.833 45.5 -307.5 136.5s-116.5 213.167 -116.5 366.5
c0 174 41.833 312.333 125.5 415s198.167 154 343.5 154c138 0 240.333 -55.333 307 -166h4v142h164v-942zM876.001 463l-0.000976562 151.001c0 81.333 -27.5 151 -82.5 209s-123.5 87 -205.5 87c-101.333 0 -180.666 -36.833 -237.999 -110.5s-86 -176.834 -86 -309.501
c0 -114 27.5 -205.167 82.5 -273.5s127.833 -102.5 218.5 -102.5c92 0 166.833 32.667 224.5 98s86.5 149 86.5 251zM866 1546l-262 -328h-127l223 328h166z" />
    <glyph glyph-name="uni01F8" unicode="&#x1f8;" horiz-adv-x="1532" 
d="M1344 0l-206 0.00195312l-738 1143c-18.667 28.667 -34 58.667 -46 90h-6c5.33301 -30.667 8 -96.334 8 -197.001v-1036h-168v1434h218l718 -1125c30 -46.667 49.333 -78.667 58 -96h4c-6.66699 41.333 -10 111.666 -10 210.999v1010h168v-1434zM852 1568h-127l-262 328
h168z" />
    <glyph glyph-name="uni01F9" unicode="&#x1f9;" horiz-adv-x="1159" 
d="M1016 0h-164v584c0 217.333 -79.333 326 -238 326c-82 0 -149.833 -30.833 -203.5 -92.5s-80.5 -139.5 -80.5 -233.5v-584h-164v1024h164v-170h4c77.333 129.333 189.333 194 336 194c112 0 197.667 -36.167 257 -108.5s89 -176.833 89 -313.5v-626zM674 1218h-127
l-262 328h168z" />
    <glyph glyph-name="Aringacute" unicode="&#x1fa;" horiz-adv-x="1321" 
d="M1298 0l-186 -0.000976562l-152 402h-608l-143 -402h-187l529 1378c-67.333 34.667 -101 89.334 -101 164.001c0 59.333 20 107.333 60 144s90.667 55 152 55c58.667 0 106.667 -18.167 144 -54.5s56 -82.5 56 -138.5c0 -74.667 -32 -130 -96 -166zM656 1659
c-33.333 0 -60.667 -10.501 -82 -31.501s-32 -47.5 -32 -79.5c0 -76 38 -114 114 -114c32 0 59 11 81 33s33 49 33 81c0 32.667 -11 59.334 -33 80.001s-49 31 -81 31zM904.999 552.998l-225 611c-7.33301 20 -14.666 52 -21.999 96h-4
c-6.66699 -40.667 -14.334 -72.667 -23.001 -96l-223 -611h497zM923.999 2130l-262 -328h-127l223 328h166z" />
    <glyph glyph-name="aringacute" unicode="&#x1fb;" horiz-adv-x="1042" 
d="M899 0l-164.001 0.000976562v160h-4c-71.333 -122.667 -176.333 -184 -315 -184c-102 0 -181.833 27 -239.5 81s-86.5 125.667 -86.5 215c0 191.333 112.667 302.666 338 333.999l307 43c0 174 -70.333 261 -211 261c-123.333 0 -234.666 -42 -333.999 -126v168
c100.667 64 216.667 96 348 96c240.667 0 361 -127.333 361 -382v-666zM734.999 518.001l-247 -34c-76 -10.667 -133.333 -29.5 -172 -56.5s-58 -74.833 -58 -143.5c0 -50 17.833 -90.833 53.5 -122.5s83.167 -47.5 142.5 -47.5c81.333 0 148.5 28.5 201.5 85.5
s79.5 129.167 79.5 216.5v102zM516.999 1121c-58 0 -106.166 17.5 -144.499 52.5s-57.5 80.833 -57.5 137.5c0 60 19.667 108 59 144s89.333 54 150 54c59.333 0 108 -18 146 -54s57 -82 57 -138s-20.333 -102.667 -61 -140s-90.334 -56 -149.001 -56zM517 1428
c-32 0 -58.667 -10.833 -80 -32.5s-32 -48.5 -32 -80.5c0 -74.667 37.333 -112 112 -112c33.333 0 61 10.667 83 32s33 48 33 80c0 32.667 -11 59.667 -33 81s-49.667 32 -83 32zM792 1894l-262 -328h-127l223 328h166z" />
    <glyph glyph-name="AEacute" unicode="&#x1fc;" horiz-adv-x="1762" 
d="M1667 0h-759v402h-510l-193 -402h-195l700 1434h924v-152h-559v-477h519v-151h-519v-502h592v-152zM908 553v729h-95l-346 -729h441zM1340 1894l-262 -328h-127l223 328h166z" />
    <glyph glyph-name="aeacute" unicode="&#x1fd;" horiz-adv-x="1704" 
d="M1622 471h-725c2 -114 32.333 -202 91 -264s139 -93 241 -93c118 0 225 38 321 114v-154c-88 -65.333 -207.333 -98 -358 -98c-180 0 -307.667 76.333 -383 229h-4c-96.667 -152.667 -225.667 -229 -387 -229c-102 0 -182.167 26.833 -240.5 80.5
s-87.5 125.5 -87.5 215.5c0 200 127.667 308 383 324l262 16c0 198.667 -71.667 298 -215 298c-116.667 0 -226.667 -40.667 -330 -122v164c98.667 64 214.667 96 348 96c154.667 0 254.667 -66.667 300 -200h4c77.333 133.333 196 200 356 200
c134.667 0 239 -43.5 313 -130.5s111 -207.833 111 -362.5v-84zM1454 610c-1.33301 96 -24.1689 170.001 -68.502 222.001s-106.166 78 -185.499 78c-77.333 0 -143.666 -27.333 -198.999 -82s-89.333 -127.334 -102 -218.001h555zM734.997 410.001l0.000976562 62.999
l-203 -12c-92.667 -5.33301 -161.834 -21.666 -207.501 -48.999s-68.5 -72.666 -68.5 -135.999c0 -48.667 17.667 -87.834 53 -117.501s83 -44.5 143 -44.5c79.333 0 146.333 28.167 201 84.5s82 126.833 82 211.5zM1121 1546l-262 -328h-127l223 328h166z" />
    <glyph glyph-name="Oslashacute" unicode="&#x1fe;" horiz-adv-x="1544" 
d="M172 -51l-78.001 65.001l158 191c-105.333 130.667 -158 295.667 -158 495c0 228.667 62 412 186 550c124.667 138.667 294.667 208 510 208c156 0 290 -43 402 -129l135 162l78 -63l-139 -166c122.667 -132.667 184 -308.334 184 -527.001c0 -234 -62 -419 -186 -555
s-290 -204 -498 -204c-177.333 0 -324.666 51.667 -441.999 155zM1090 1204c-84 68 -188 101.999 -312 101.999c-151.333 0 -274 -54.667 -368 -164c-93.333 -109.333 -140 -251.666 -140 -426.999c0 -148 32.667 -272.333 98 -373zM431.999 264
c87.333 -91.333 198.667 -137 334 -137c157.333 0 281.333 51.333 372 154s136 246.334 136 431.001c0 173.333 -39 312.666 -117 417.999zM1030 1894l-262 -328h-127l223 328h166z" />
    <glyph glyph-name="oslashacute" unicode="&#x1ff;" horiz-adv-x="1200" 
d="M1174 1048l-168 -179.999c65.333 -92 98 -207.333 98 -346c0 -168 -46.333 -301 -139 -399s-216.334 -147 -371.001 -147c-128 0 -234 34 -318 102l-145 -160l-82 78l149 164c-68 91.333 -102 204.666 -102 339.999c0 172 47.333 306.333 142 403s222 145 382 145
c122.667 0 225.334 -32.667 308.001 -98l162 176zM821 836.001c-52.667 49.333 -124.333 74 -215 74c-106 0 -189.5 -35.833 -250.5 -107.5s-91.5 -170.5 -91.5 -296.5c0 -88 16.667 -162.667 50 -224zM891.001 742.001l-508 -552c58 -50.667 131.667 -76 221 -76
c108.667 0 191.5 34.667 248.5 104s85.5 167.333 85.5 294c0 89.333 -15.667 166 -47 230zM868.001 1546l-262 -328h-127l223 328h166z" />
    <glyph glyph-name="uni0200" unicode="&#x200;" horiz-adv-x="1321" 
d="M1298 0h-186l-152 402h-608l-143 -402h-187l550 1434h174zM905 553l-225 611c-7.33301 20 -14.666 52 -21.999 96h-4c-6.66699 -40.667 -14.334 -72.667 -23.001 -96l-223 -611h497zM834 1568h-97l-239 318h129zM592 1568h-96l-246 318h133z" />
    <glyph glyph-name="uni0201" unicode="&#x201;" horiz-adv-x="1034" 
d="M892 0l-164.001 0.000976562v160h-4c-71.333 -122.667 -176.333 -184 -315 -184c-102 0 -181.833 27 -239.5 81s-86.5 125.667 -86.5 215c0 191.333 112.667 302.666 338 333.999l307 43c0 174 -70.333 261 -211 261c-123.333 0 -234.666 -42 -333.999 -126v168
c100.667 64 216.667 96 348 96c240.667 0 361 -127.333 361 -382v-666zM727.999 518.001l-247 -34c-76 -10.667 -133.333 -29.5 -172 -56.5s-58 -74.833 -58 -143.5c0 -50 17.833 -90.833 53.5 -122.5s83.167 -47.5 142.5 -47.5c81.333 0 148.5 28.5 201.5 85.5
s79.5 129.167 79.5 216.5v102zM709.999 1218h-97l-239 318h129zM467.999 1218h-96l-246 318h133z" />
    <glyph glyph-name="uni0202" unicode="&#x202;" horiz-adv-x="1321" 
d="M1298 0h-186l-152 402h-608l-143 -402h-187l550 1434h174zM905 553l-225 611c-7.33301 20 -14.666 52 -21.999 96h-4c-6.66699 -40.667 -14.334 -72.667 -23.001 -96l-223 -611h497zM921 1567h-102.003c-6 48 -25.167 86 -57.5 114s-71.166 42 -116.499 42
c-106.667 0 -164 -52 -172 -156h-100c2.66699 76 28.834 137 78.501 183s113.5 69 191.5 69c75.333 0 138.833 -23 190.5 -69s80.834 -107 87.501 -183z" />
    <glyph glyph-name="uni0203" unicode="&#x203;" horiz-adv-x="1042" 
d="M899 0l-164.001 0.000976562v160h-4c-71.333 -122.667 -176.333 -184 -315 -184c-102 0 -181.833 27 -239.5 81s-86.5 125.667 -86.5 215c0 191.333 112.667 302.666 338 333.999l307 43c0 174 -70.333 261 -211 261c-123.333 0 -234.666 -42 -333.999 -126v168
c100.667 64 216.667 96 348 96c240.667 0 361 -127.333 361 -382v-666zM734.999 518.001l-247 -34c-76 -10.667 -133.333 -29.5 -172 -56.5s-58 -74.833 -58 -143.5c0 -50 17.833 -90.833 53.5 -122.5s83.167 -47.5 142.5 -47.5c81.333 0 148.5 28.5 201.5 85.5
s79.5 129.167 79.5 216.5v102zM802.999 1218h-102.003c-6 48 -25.167 86 -57.5 114s-71.166 42 -116.499 42c-106.667 0 -164 -52 -172 -156h-100c2.66699 76 28.834 137 78.501 183s113.5 69 191.5 69c75.333 0 138.833 -23 190.5 -69s80.834 -107 87.501 -183z" />
    <glyph glyph-name="uni0204" unicode="&#x204;" horiz-adv-x="1036" 
d="M948 0h-760v1434h728v-152h-560v-477h518v-151h-518v-502h592v-152zM742 1568h-97l-239 318h129zM500 1568h-96l-246 318h133z" />
    <glyph glyph-name="uni0205" unicode="&#x205;" horiz-adv-x="1071" 
d="M989 471l-723.001 0.000976562c2.66699 -114 33.334 -202 92.001 -264s139.334 -93 242.001 -93c115.333 0 221.333 38 318 114v-154c-90 -65.333 -209 -98 -357 -98c-144.667 0 -258.334 46.5 -341.001 139.5s-124 223.833 -124 392.5
c0 159.333 45.167 289.166 135.5 389.499s202.5 150.5 336.5 150.5s237.667 -43.333 311 -130s110 -207 110 -361v-86zM820.999 610.001c-0.666992 94.667 -23.5 168.332 -68.5 220.999s-107.5 79 -187.5 79c-77.333 0 -143 -27.667 -197 -83
s-87.333 -127.666 -100 -216.999h553zM739.999 1218h-97l-239 318h129zM497.999 1218h-96l-246 318h133z" />
    <glyph glyph-name="Ebreveinverted" unicode="&#x206;" horiz-adv-x="1036" 
d="M948 0h-760v1434h728v-152h-560v-477h518v-151h-518v-502h592v-152zM851 1567h-102.003c-6 48 -25.167 86 -57.5 114s-71.166 42 -116.499 42c-106.667 0 -164 -52 -172 -156h-100c2.66699 76 28.834 137 78.501 183s113.5 69 191.5 69c75.333 0 138.833 -23 190.5 -69
s80.834 -107 87.501 -183z" />
    <glyph glyph-name="uni0207" unicode="&#x207;" horiz-adv-x="1071" 
d="M989 471l-723.001 0.000976562c2.66699 -114 33.334 -202 92.001 -264s139.334 -93 242.001 -93c115.333 0 221.333 38 318 114v-154c-90 -65.333 -209 -98 -357 -98c-144.667 0 -258.334 46.5 -341.001 139.5s-124 223.833 -124 392.5
c0 159.333 45.167 289.166 135.5 389.499s202.5 150.5 336.5 150.5s237.667 -43.333 311 -130s110 -207 110 -361v-86zM820.999 610.001c-0.666992 94.667 -23.5 168.332 -68.5 220.999s-107.5 79 -187.5 79c-77.333 0 -143 -27.667 -197 -83
s-87.333 -127.666 -100 -216.999h553zM843.999 1218h-102.003c-6 48 -25.167 86 -57.5 114s-71.166 42 -116.499 42c-106.667 0 -164 -52 -172 -156h-100c2.66699 76 28.834 137 78.501 183s113.5 69 191.5 69c75.333 0 138.833 -23 190.5 -69s80.834 -107 87.501 -183z" />
    <glyph glyph-name="uni0208" unicode="&#x208;" horiz-adv-x="545" 
d="M496 1434v-144h-140v-1146h140v-144h-448v144h140v1146h-140v144h448zM462 1568h-97l-239 318h129zM220 1568h-96l-246 318h133z" />
    <glyph glyph-name="uni0209" unicode="&#x209;" horiz-adv-x="496" 
d="M330 0h-164v1024h164v-1024zM438 1218h-97l-239 318h129zM196 1218h-96l-246 318h133z" />
    <glyph glyph-name="uni020A" unicode="&#x20a;" horiz-adv-x="545" 
d="M496 1434v-144h-140v-1146h140v-144h-448v144h140v1146h-140v144h448zM546 1567h-102.003c-6 48 -25.167 86 -57.5 114s-71.166 42 -116.499 42c-106.667 0 -164 -52 -172 -156h-100c2.66699 76 28.834 137 78.501 183s113.5 69 191.5 69c75.333 0 138.833 -23 190.5 -69
s80.834 -107 87.501 -183z" />
    <glyph glyph-name="uni020B" unicode="&#x20b;" horiz-adv-x="496" 
d="M330 0h-164v1024h164v-1024zM522 1218h-102.003c-6 48 -25.167 86 -57.5 114s-71.166 42 -116.499 42c-106.667 0 -164 -52 -172 -156h-100c2.66699 76 28.834 137 78.501 183s113.5 69 191.5 69c75.333 0 138.833 -23 190.5 -69s80.834 -107 87.501 -183z" />
    <glyph glyph-name="uni020C" unicode="&#x20c;" horiz-adv-x="1544" 
d="M766 -24c-203.333 0 -366.168 66.999 -488.501 200.999s-183.5 308.333 -183.5 523c0 230.667 62.333 414.667 187 552s294.334 206 509.001 206c198 0 357.5 -66.667 478.5 -200s181.5 -307.666 181.5 -522.999c0 -234 -62 -419 -186 -555s-290 -204 -498 -204z
M777.998 1306c-150.667 0 -273 -54.3311 -367 -162.998s-141 -251.334 -141 -428.001s45.833 -318.834 137.5 -426.501s211.167 -161.5 358.5 -161.5c157.333 0 281.333 51.333 372 154s136 246.334 136 431.001c0 189.333 -44 335.666 -132 438.999s-209.333 155 -364 155z
M949.998 1568h-97l-239 318h129zM707.998 1568h-96l-246 318h133z" />
    <glyph glyph-name="uni020D" unicode="&#x20d;" horiz-adv-x="1200" 
d="M594 -24c-151.333 0 -272.169 47.832 -362.502 143.499s-135.5 222.5 -135.5 380.5c0 172 47 306.333 141 403s221 145 381 145c152.667 0 271.834 -47 357.501 -141s128.5 -224.333 128.5 -391c0 -163.333 -46.167 -294.166 -138.5 -392.499
s-216.166 -147.5 -371.499 -147.5zM605.997 909.999c-105.333 0 -188.667 -35.834 -250 -107.501s-92 -170.5 -92 -296.5c0 -121.333 31 -217 93 -287s145 -105 249 -105c106 0 187.5 34.333 244.5 103s85.5 166.334 85.5 293.001c0 128 -28.5 226.667 -85.5 296
s-138.5 104 -244.5 104zM775.996 1218h-97l-239 318h129zM533.996 1218h-96l-246 318h133z" />
    <glyph glyph-name="uni020E" unicode="&#x20e;" horiz-adv-x="1544" 
d="M766 -24c-203.333 0 -366.168 66.999 -488.501 200.999s-183.5 308.333 -183.5 523c0 230.667 62.333 414.667 187 552s294.334 206 509.001 206c198 0 357.5 -66.667 478.5 -200s181.5 -307.666 181.5 -522.999c0 -234 -62 -419 -186 -555s-290 -204 -498 -204z
M777.998 1306c-150.667 0 -273 -54.3311 -367 -162.998s-141 -251.334 -141 -428.001s45.833 -318.834 137.5 -426.501s211.167 -161.5 358.5 -161.5c157.333 0 281.333 51.333 372 154s136 246.334 136 431.001c0 189.333 -44 335.666 -132 438.999s-209.333 155 -364 155z
M1048 1567h-102.003c-6 48 -25.167 86 -57.5 114s-71.166 42 -116.499 42c-106.667 0 -164 -52 -172 -156h-100c2.66699 76 28.834 137 78.501 183s113.5 69 191.5 69c75.333 0 138.833 -23 190.5 -69s80.834 -107 87.501 -183z" />
    <glyph glyph-name="uni020F" unicode="&#x20f;" horiz-adv-x="1200" 
d="M594 -24c-151.333 0 -272.169 47.832 -362.502 143.499s-135.5 222.5 -135.5 380.5c0 172 47 306.333 141 403s221 145 381 145c152.667 0 271.834 -47 357.501 -141s128.5 -224.333 128.5 -391c0 -163.333 -46.167 -294.166 -138.5 -392.499
s-216.166 -147.5 -371.499 -147.5zM605.997 909.999c-105.333 0 -188.667 -35.834 -250 -107.501s-92 -170.5 -92 -296.5c0 -121.333 31 -217 93 -287s145 -105 249 -105c106 0 187.5 34.333 244.5 103s85.5 166.334 85.5 293.001c0 128 -28.5 226.667 -85.5 296
s-138.5 104 -244.5 104zM881.996 1218h-102.003c-6 48 -25.167 86 -57.5 114s-71.166 42 -116.499 42c-106.667 0 -164 -52 -172 -156h-100c2.66699 76 28.834 137 78.501 183s113.5 69 191.5 69c75.333 0 138.833 -23 190.5 -69s80.834 -107 87.501 -183z" />
    <glyph glyph-name="uni0210" unicode="&#x210;" horiz-adv-x="1178" 
d="M1216 0l-199.999 0.00390625l-240 402c-22 37.333 -43.333 69.166 -64 95.499s-41.834 47.833 -63.501 64.5s-45 28.834 -70 36.501s-53.167 11.5 -84.5 11.5h-138v-610h-168v1434h428c62.667 0 120.5 -7.83301 173.5 -23.5s99 -39.5 138 -71.5s69.5 -71.833 91.5 -119.5
s33 -103.5 33 -167.5c0 -50 -7.5 -95.833 -22.5 -137.5s-36.333 -78.834 -64 -111.501s-61 -60.5 -100 -83.5s-82.833 -40.833 -131.5 -53.5v-4c24 -10.667 44.833 -22.834 62.5 -36.501s34.5 -29.834 50.5 -48.501s31.833 -39.834 47.5 -63.501l52.5 -82.5zM356.001 1282
v-520.001h228c42 0 80.833 6.33301 116.5 19s66.5 30.834 92.5 54.501s46.333 52.667 61 87s22 72.833 22 115.5c0 76.667 -24.833 136.5 -74.5 179.5s-121.5 64.5 -215.5 64.5h-230zM744.001 1568h-97l-239 318h129zM502.001 1568h-96l-246 318h133z" />
    <glyph glyph-name="uni0211" unicode="&#x211;" horiz-adv-x="712" 
d="M700 858c-28.667 22 -70.001 33 -124.001 33c-70 0 -128.5 -33 -175.5 -99s-70.5 -156 -70.5 -270v-522h-164v1024h164v-211h4c23.333 72 59 128.167 107 168.5s101.667 60.5 161 60.5c42.667 0 75.334 -4.66699 98.001 -14v-170zM587.999 1218h-97l-239 318h129z
M345.999 1218h-96l-246 318h133z" />
    </font>
</defs>
</svg>
