<?xml version="1.0" standalone="no"?>
<!DOCTYPE svg PUBLIC "-//W3C//DTD SVG 1.1//EN" "http://www.w3.org/Graphics/SVG/1.1/DTD/svg11.dtd" >
<svg xmlns="http://www.w3.org/2000/svg" xmlns:xlink="http://www.w3.org/1999/xlink" version="1.1">
<metadata>
Created by FontForge 20170731 at Fri Apr 25 19:30:49 2014
 By Aleksey,,,
Copyright (c) 2014 by Aakash Soneri. All rights reserved.
</metadata>
<defs>
<font id="Ample-Medium" horiz-adv-x="636" >
  <font-face 
    font-family="Ample-Medium"
    font-weight="500"
    font-stretch="normal"
    units-per-em="1000"
    panose-1="2 0 0 0 0 0 0 0 0 0"
    ascent="750"
    descent="-250"
    x-height="496"
    cap-height="650"
    bbox="-45 -244 1145 931"
    underline-thickness="50"
    underline-position="-200"
    unicode-range="U+0020-FB02"
  />
<missing-glyph horiz-adv-x="212" 
 />
    <glyph glyph-name=".notdef" horiz-adv-x="212" 
 />
    <glyph glyph-name=".null" horiz-adv-x="0" 
 />
    <glyph glyph-name="nonmarkingreturn" horiz-adv-x="333" 
 />
    <glyph glyph-name="space" unicode=" " horiz-adv-x="246" 
 />
    <glyph glyph-name="exclam" unicode="!" horiz-adv-x="276" 
d="M89 650h100v-219q0 -141 -18 -245h-64q-18 97 -18 245v219zM73 56q0 27 19 46t46 19t46 -19t19 -46q0 -28 -19 -47t-46 -19t-46 19t-19 47z" />
    <glyph glyph-name="quotedbl" unicode="&#x22;" horiz-adv-x="315" 
d="M190 514v209h86v-209h-86zM39 514v209h86v-209h-86z" />
    <glyph glyph-name="numbersign" unicode="#" horiz-adv-x="674" 
d="M326 0l37 150h-140l-37 -150h-87l37 150h-92v77h112l49 196h-117v77h136l37 150h87l-38 -150h140l38 150h86l-38 -150h94v-77h-112l-49 -196h117v-77h-137l-37 -150h-86zM291 423l-49 -196h140l49 196h-140z" />
    <glyph glyph-name="dollar" unicode="$" horiz-adv-x="503" 
d="M204 -85v84q-89 4 -163 38v100q93 -39 191 -39q64 0 92.5 14.5t28.5 49.5q0 27 -17.5 46t-64.5 49l-125 80q-97 63 -97 161q0 130 155 148v89h88v-86q65 -3 140 -36v-101q-75 38 -171 38q-55 0 -79 -13t-24 -43q0 -24 13 -39.5t46 -36.5l129 -84q59 -39 87.5 -76
t28.5 -97q0 -139 -170 -158v-88h-88z" />
    <glyph glyph-name="percent" unicode="%" horiz-adv-x="828" 
d="M530 650h107l-339 -650h-105zM358 495q0 -166 -158 -166t-158 166q0 165 158 165t158 -165zM270 495q0 46 -16 65.5t-54 19.5t-54 -19.5t-16 -65.5t15.5 -65.5t54.5 -19.5t54.5 19.5t15.5 65.5zM786 155q0 -165 -159 -165q-158 0 -158 165q0 166 158 166q159 0 159 -166z
M698 155q0 46 -16 65.5t-55 19.5t-54.5 -19.5t-15.5 -65.5t15.5 -65.5t54.5 -19.5t55 19.5t16 65.5z" />
    <glyph glyph-name="ampersand" unicode="&#x26;" horiz-adv-x="621" 
d="M604 291h-86v-96q0 -206 -229 -206q-236 0 -236 192q0 119 102 156q-86 36 -86 137q0 185 220 185q60 0 92 -9v-100q-43 12 -95 12q-61 0 -87 -22.5t-26 -71.5q0 -47 24 -69t87 -22h128v90h106v-90h86v-86zM159 187q0 -57 32 -78.5t94 -21.5q61 0 94 22.5t33 89.5v92
h-126q-66 0 -96.5 -24t-30.5 -80z" />
    <glyph glyph-name="quotesingle" unicode="'" horiz-adv-x="164" 
d="M39 514v209h86v-209h-86z" />
    <glyph glyph-name="parenleft" unicode="(" horiz-adv-x="360" 
d="M51 250q0 303 202 491l67 -61q-173 -160 -173 -430q0 -268 174 -430l-68 -61q-202 188 -202 491z" />
    <glyph glyph-name="parenright" unicode=")" horiz-adv-x="360" 
d="M309 250q0 -303 -202 -491l-68 61q175 163 175 430q0 270 -174 430l67 61q202 -188 202 -491z" />
    <glyph glyph-name="asterisk" unicode="*" horiz-adv-x="466" 
d="M274 741l-6 -145l135 51l25 -77l-138 -41l88 -111l-65 -48l-81 119l-79 -118l-66 47l89 112l-138 40l25 78l135 -51l-6 144h82z" />
    <glyph glyph-name="plus" unicode="+" horiz-adv-x="560" 
d="M509 364v-87h-182v-181h-94v181h-182v87h182v182h94v-182h182z" />
    <glyph glyph-name="comma" unicode="," horiz-adv-x="214" 
d="M70 -143l-29 7q0 58 3 98q10 153 70 153q21 0 33 -14.5t12 -38.5q0 -31 -31 -97.5t-58 -107.5z" />
    <glyph glyph-name="hyphen" unicode="-" horiz-adv-x="400" 
d="M374 364v-87h-348v87h348z" />
    <glyph glyph-name="period" unicode="." horiz-adv-x="222" 
d="M46 55q0 27 19 46t46 19t46 -19t19 -46t-19 -46t-46 -19t-46 19t-19 46z" />
    <glyph glyph-name="slash" unicode="/" horiz-adv-x="333" 
d="M242 741h96l-249 -771h-94z" />
    <glyph glyph-name="zero" unicode="0" horiz-adv-x="583" 
d="M426 245v157q0 84 -29 121t-106 37q-75 0 -105 -37t-30 -121v-157q0 -84 30 -121t105 -37q77 0 106 36.5t29 121.5zM291 -12q-132 0 -186.5 65.5t-54.5 191.5v157q0 126 54.5 191.5t186.5 65.5q133 0 187.5 -65t54.5 -192v-157q0 -127 -54.5 -192t-187.5 -65z" />
    <glyph glyph-name="one" unicode="1" horiz-adv-x="370" 
d="M68 442l-69 67l75 89q52 61 116 61q55 0 82.5 -31t27.5 -102v-526h-105v491q0 47 -3 58.5t-17 11.5q-13 0 -40 -33z" />
    <glyph glyph-name="two" unicode="2" horiz-adv-x="517" 
d="M468 487q0 -55 -25.5 -95t-90.5 -91l-169 -133q-37 -29 -37 -46q0 -13 9.5 -18t39.5 -5h273v-99h-280q-78 0 -111 24.5t-33 79.5q0 42 17.5 75t60.5 66l149 117q55 43 73 66.5t18 54.5q0 41 -29 59.5t-94 18.5q-104 0 -170 -33v105q76 26 167 26q113 0 172.5 -40
t59.5 -132z" />
    <glyph glyph-name="three" unicode="3" horiz-adv-x="508" 
d="M177 290v88h41q73 0 99.5 21.5t26.5 68.5q0 51 -25.5 72t-93.5 21q-85 0 -168 -29v104q71 23 168 23q225 0 225 -185q0 -53 -20.5 -85.5t-63.5 -53.5q94 -34 94 -146q0 -200 -235 -200q-94 0 -180 28v104q82 -33 180 -33q74 0 101.5 24t27.5 77q0 49 -29.5 75t-106.5 26
h-41z" />
    <glyph glyph-name="four" unicode="4" horiz-adv-x="521" 
d="M52 317l111 333h111l-123 -366q-9 -28 0 -40t39 -12h166v258h105v-490h-105v134h-172q-101 0 -132.5 43.5t0.5 139.5z" />
    <glyph glyph-name="five" unicode="5" horiz-adv-x="544" 
d="M76 409v127q0 60 27 87t87 27h267v-99h-237q-39 0 -39 -38v-80q0 -39 39 -39h36q124 0 181 -50t57 -155q0 -103 -60.5 -151t-180.5 -48q-101 0 -183 29v103q79 -34 181 -34q75 0 106.5 24.5t31.5 76.5q0 63 -34.5 84.5t-121.5 21.5h-43q-60 0 -87 27.5t-27 86.5z" />
    <glyph glyph-name="six" unicode="6" horiz-adv-x="548" 
d="M291 401q110 0 163 -44.5t53 -150.5q0 -113 -56 -164.5t-170 -51.5q-122 0 -176.5 64t-54.5 190v162q0 134 60 193.5t199 59.5q93 0 165 -32v-102q-72 36 -168 36q-87 0 -118.5 -31t-31.5 -120v-30q59 21 135 21zM280 309q-73 0 -124 -23v-33q0 -86 25.5 -125.5
t106.5 -39.5q65 0 89.5 25.5t24.5 86.5q0 63 -27.5 86t-94.5 23z" />
    <glyph glyph-name="seven" unicode="7" horiz-adv-x="497" 
d="M213 0h-120l244 476q14 28 14 46q0 29 -49 29h-268v99h277q74 0 108.5 -27t34.5 -85q0 -61 -46 -151z" />
    <glyph glyph-name="eight" unicode="8" horiz-adv-x="564" 
d="M282 659q112 0 165 -45.5t53 -137.5q0 -54 -17.5 -85.5t-62.5 -54.5q51 -22 73 -57.5t22 -96.5q0 -90 -56.5 -141.5t-177.5 -51.5q-233 0 -233 193q0 61 22.5 96.5t74.5 57.5q-45 23 -63 54.5t-18 85.5q0 183 218 183zM154 189q0 -54 29 -78t99 -24t98.5 24t28.5 78
q0 52 -29.5 76.5t-97.5 24.5t-98 -24.5t-30 -76.5zM168 468q0 -51 25.5 -72t88.5 -21q62 0 88 21t26 72q0 49 -24.5 71.5t-90.5 22.5q-65 0 -89 -22.5t-24 -71.5z" />
    <glyph glyph-name="nine" unicode="9" horiz-adv-x="548" 
d="M259 249q-111 0 -164.5 44t-53.5 150q0 113 56 164.5t170 51.5q122 0 176.5 -64t54.5 -190v-163q0 -134 -60 -193.5t-199 -59.5q-94 0 -172 33v102q75 -36 175 -36q88 0 119 30.5t31 119.5v31q-53 -20 -133 -20zM271 340q70 0 121 23v33q0 87 -25.5 126.5t-106.5 39.5
q-65 0 -89.5 -26t-24.5 -87q0 -63 27.5 -86t97.5 -23z" />
    <glyph glyph-name="colon" unicode=":" horiz-adv-x="222" 
d="M46 55q0 27 19 46t46 19t46 -19t19 -46t-19 -46t-46 -19t-46 19t-19 46zM46 441q0 28 19 47t46 19t46 -19.5t19 -46.5q0 -26 -19 -45.5t-46 -19.5t-46 19t-19 46z" />
    <glyph glyph-name="semicolon" unicode=";" horiz-adv-x="219" 
d="M44 441q0 28 19 47t47 19q27 0 46 -19.5t19 -46.5q0 -26 -19 -45.5t-46 -19.5q-28 0 -47 19t-19 46zM80 -143l-29 7q0 58 3 98q10 153 70 153q21 0 33 -14.5t12 -38.5q0 -31 -31 -97.5t-58 -107.5z" />
    <glyph glyph-name="less" unicode="&#x3c;" horiz-adv-x="459" 
d="M412 163v-100l-316 160q-38 19 -52.5 43t-14.5 58t14.5 57.5t52.5 42.5l316 160v-99l-277 -137q-18 -10 -18 -24q0 -16 18 -24z" />
    <glyph glyph-name="equal" unicode="=" horiz-adv-x="540" 
d="M489 257v-86h-438v86h438zM489 481v-86h-438v86h438z" />
    <glyph glyph-name="greater" unicode="&#x3e;" horiz-adv-x="459" 
d="M47 63v100l277 137q18 8 18 24q0 14 -18 24l-277 137v99l316 -160q38 -19 52.5 -42.5t14.5 -57.5t-14.5 -58t-52.5 -43z" />
    <glyph glyph-name="question" unicode="?" horiz-adv-x="425" 
d="M62 56q0 27 19 46t46 19t46 -19t19 -46q0 -28 -19 -47t-46 -19t-46 19t-19 47zM378 469q0 -74 -32.5 -114.5t-94.5 -74.5q-38 -21 -56 -42t-23 -51h-89q-7 29 0 55t26.5 48t37.5 36.5t43 30.5q31 20 45 30.5t26 32t12 49.5q0 53 -25 73t-85 20q-74 0 -118 -23v102
q52 18 117 18q110 0 163 -43.5t53 -146.5z" />
    <glyph glyph-name="at" unicode="@" horiz-adv-x="963" 
d="M680 284v-71q0 -101 61 -101q72 0 72 104v69q0 151 -94.5 229t-237.5 78q-156 0 -243 -78.5t-87 -229.5v-71q0 -155 88 -232t225 -77q125 0 195 67l55 -69q-110 -84 -260 -84q-171 0 -284 105.5t-113 289.5v71q0 189 115 291.5t309 102.5q86 0 161.5 -24t135.5 -70.5
t94.5 -123.5t34.5 -176v-66q0 -37 -7.5 -68.5t-24.5 -60.5t-50.5 -46t-81.5 -17q-44 0 -79.5 23t-50.5 70q-33 -93 -153 -93q-93 0 -136.5 51.5t-43.5 139.5v67q0 188 201 188q93 0 146 -47.5t53 -140.5zM377 282v-66q0 -54 22 -79t79 -25q106 0 106 104v66q0 51 -22.5 77
t-81.5 26t-81 -26t-22 -77z" />
    <glyph glyph-name="A" unicode="A" horiz-adv-x="633" 
d="M477 491l135 -491h-106l-49 180h-281l-49 -180h-106l135 491q27 97 57.5 132.5t103.5 35.5t103 -35.5t57 -132.5zM260 493l-59 -218h231l-59 218q-12 44 -22 58t-34 14t-34.5 -14t-22.5 -58z" />
    <glyph glyph-name="B" unicode="B" horiz-adv-x="602" 
d="M187 650h132q214 0 214 -173q0 -55 -21 -87.5t-72 -50.5v-4q64 -20 88.5 -56.5t24.5 -94.5q0 -184 -234 -184h-132q-60 0 -87 27t-27 87v422q0 60 27 87t87 27zM332 287h-154v-150q0 -38 39 -38h96q76 0 104.5 20.5t28.5 71.5q0 48 -25.5 72t-88.5 24zM319 551h-102
q-39 0 -39 -38v-135h141q59 0 83 23t24 65t-24 63.5t-83 21.5z" />
    <glyph glyph-name="C" unicode="C" horiz-adv-x="529" 
d="M161 399v-160q0 -73 36 -112t127 -39q105 0 169 40v-99q-70 -40 -171 -40q-135 0 -202 60t-67 190v160q0 260 269 260q57 0 92 -10t76 -31v-99q-76 42 -170 42q-84 0 -121.5 -39.5t-37.5 -122.5z" />
    <glyph glyph-name="D" unicode="D" horiz-adv-x="617" 
d="M73 114v422q0 60 27 87t87 27h83q158 0 226 -55.5t68 -200.5v-138q0 -137 -70 -196.5t-224 -59.5h-83q-60 0 -87 27t-27 87zM270 99q108 0 147 34t39 123v138q0 88 -39 122.5t-147 34.5h-53q-39 0 -39 -38v-376q0 -38 39 -38h53z" />
    <glyph glyph-name="E" unicode="E" horiz-adv-x="562" 
d="M178 286v-149q0 -38 39 -38h298v-99h-328q-60 0 -87 27t-27 87v422q0 60 27 87t87 27h328v-99h-298q-39 0 -39 -38v-128h297v-99h-297z" />
    <glyph glyph-name="F" unicode="F" horiz-adv-x="538" 
d="M178 279v-279h-105v536q0 60 27 87t87 27h314v-99h-284q-39 0 -39 -38v-135h283v-99h-283z" />
    <glyph glyph-name="G" unicode="G" horiz-adv-x="589" 
d="M439 137v227h99v-228q0 -66 -22 -98t-81 -42q-42 -7 -85 -7q-157 0 -227 59t-70 195v160q0 121 71 188.5t221 67.5q98 0 182 -41v-99q-32 17 -83 29.5t-98 12.5q-101 0 -143 -38t-42 -127v-160q0 -73 41 -110.5t147 -37.5q39 0 55 3q35 5 35 46z" />
    <glyph glyph-name="H" unicode="H" horiz-adv-x="628" 
d="M178 293v-293h-105v650h105v-258h272v258h105v-650h-105v293h-272z" />
    <glyph glyph-name="I" unicode="I" horiz-adv-x="265" 
d="M80 0v650h105v-650h-105z" />
    <glyph glyph-name="J" unicode="J" horiz-adv-x="265" 
d="M185 650v-494q0 -134 -40.5 -216t-121.5 -138l-55 83q56 39 84 101t28 163v501h105z" />
    <glyph glyph-name="K" unicode="K" horiz-adv-x="585" 
d="M263 445l170 205h126l-200 -244q-27 -33 -34.5 -44.5t-7.5 -22.5q0 -9 7 -20t35 -46l220 -273h-126l-190 235q-47 59 -47 106t47 104zM73 0v650h105v-650h-105z" />
    <glyph glyph-name="L" unicode="L" horiz-adv-x="499" 
d="M73 114v536h105v-513q0 -38 39 -38h258v-99h-288q-60 0 -87 27t-27 87z" />
    <glyph glyph-name="M" unicode="M" horiz-adv-x="822" 
d="M750 509l38 -509h-107l-35 508q-2 32 -10 43t-25 11q-15 0 -23 -11t-12 -43l-54 -402q-8 -59 -31 -82.5t-80 -23.5q-50 0 -76.5 23t-34.5 83l-55 402q-4 32 -12 43t-24 11t-24 -11.5t-10 -42.5l-34 -508h-107l37 509q6 78 38.5 112.5t98.5 34.5q62 0 93 -34t41 -113
l47 -386q3 -23 7 -29.5t15 -6.5q10 0 14 6.5t7 29.5l47 386q10 79 41.5 113t92.5 34q67 0 99 -34t38 -113z" />
    <glyph glyph-name="N" unicode="N" horiz-adv-x="660" 
d="M73 0v528q0 72 28 102t90 30q53 0 79 -23t43 -83l126 -447q5 -17 10.5 -22.5t15.5 -5.5q20 0 20 33v538h102v-528q0 -73 -27 -102.5t-87 -29.5q-55 0 -82 24.5t-45 86.5l-124 437q-5 20 -10.5 26.5t-16.5 6.5q-20 0 -20 -35v-536h-102z" />
    <glyph glyph-name="O" unicode="O" 
d="M477 252v143q0 88 -32 126.5t-127 38.5t-127 -38.5t-32 -126.5v-143q0 -87 32 -126t127 -39t127 39t32 126zM318 -12q-149 0 -207 67.5t-58 196.5v143q0 129 58.5 196.5t206.5 67.5q149 0 207 -67.5t58 -196.5v-143q0 -129 -58.5 -196.5t-206.5 -67.5z" />
    <glyph glyph-name="P" unicode="P" horiz-adv-x="597" 
d="M187 650h155q116 0 167.5 -55t51.5 -157q0 -212 -219 -212h-164v-226h-105v536q0 60 27 87t87 27zM342 551h-125q-39 0 -39 -38v-188h164q64 0 89 26.5t25 86.5q0 59 -25 86t-89 27z" />
    <glyph glyph-name="Q" unicode="Q" 
d="M583 252q0 -103 -35.5 -166.5t-125.5 -85.5l130 -126v-9h-127l-113 124q-45 1 -83 11q-98 18 -137 81t-39 171v143q0 129 58.5 196.5t206.5 67.5q149 0 207 -67.5t58 -196.5v-143zM477 252v143q0 88 -32 126.5t-127 38.5t-127 -38.5t-32 -126.5v-143q0 -87 32 -126
t127 -39t127 39t32 126z" />
    <glyph glyph-name="R" unicode="R" horiz-adv-x="618" 
d="M561 449q0 -80 -32.5 -128t-107.5 -64l166 -257h-121l-159 249h-129v-249h-105v536q0 60 27 87t87 27h158q116 0 166 -51.5t50 -149.5zM345 551h-128q-39 0 -39 -38v-165h167q63 0 87 25t24 76q0 53 -24 77.5t-87 24.5z" />
    <glyph glyph-name="S" unicode="S" horiz-adv-x="525" 
d="M43 27v100q95 -39 203 -39q68 0 98.5 15.5t30.5 54.5q0 30 -18 48.5t-68 48.5l-138 83q-100 60 -100 163q0 80 54 119t167 39q96 0 182 -36v-101q-76 38 -182 38q-60 0 -86.5 -14t-26.5 -48q0 -25 14 -41t49 -37l142 -87q60 -36 89.5 -74t29.5 -101q0 -85 -58 -127
t-181 -42q-112 0 -201 38z" />
    <glyph glyph-name="T" unicode="T" horiz-adv-x="564" 
d="M28 551v99h507v-99h-200v-551h-106v551h-201z" />
    <glyph glyph-name="U" unicode="U" horiz-adv-x="632" 
d="M63 217v433h105v-433q0 -70 37.5 -99.5t110.5 -29.5t110.5 29.5t37.5 99.5v433h106v-433q0 -118 -67.5 -173t-186.5 -55q-253 0 -253 228z" />
    <glyph glyph-name="V" unicode="V" horiz-adv-x="617" 
d="M593 650l-122 -491q-24 -96 -55.5 -132t-107.5 -36t-107.5 36t-55.5 132l-122 491h109l119 -493q11 -43 22 -57.5t35 -14.5t35 14.5t22 57.5l119 493h109z" />
    <glyph glyph-name="W" unicode="W" horiz-adv-x="929" 
d="M898 650l-72 -504q-12 -85 -43.5 -120t-102.5 -35q-68 0 -96.5 35t-41.5 120l-54 373q-4 26 -8 33.5t-16 7.5q-11 0 -15.5 -8t-8.5 -33l-53 -373q-12 -85 -40.5 -120t-97.5 -35q-71 0 -102.5 35t-43.5 120l-72 504h106l70 -504q5 -37 14 -49t28 -12q18 0 27 12.5t15 48.5
l58 381q11 70 35 96.5t80 26.5t80 -26t35 -97l59 -381q6 -36 15 -48.5t27 -12.5q19 0 28 12.5t14 48.5l70 504h106z" />
    <glyph glyph-name="X" unicode="X" horiz-adv-x="623" 
d="M458 650h118l-115 -233q-11 -22 -16.5 -32.5t-17 -23.5t-24.5 -18q13 -6 24.5 -18.5t18 -23.5t16.5 -31l134 -270h-118l-109 233q-19 40 -28.5 51t-28.5 11q-20 0 -29.5 -11t-28.5 -51l-109 -233h-117l133 270q10 20 16.5 31t17.5 23.5t24 18.5q-26 11 -57 74l-114 233
h117l89 -197q17 -38 28 -49.5t30 -11.5t29.5 11.5t27.5 49.5z" />
    <glyph glyph-name="Y" unicode="Y" horiz-adv-x="632" 
d="M263 0v260q-30 10 -46.5 27t-43.5 68l-159 295h118l117 -231q24 -46 35.5 -58.5t31.5 -12.5t31 12.5t35 58.5l118 231h118l-160 -295q-28 -51 -44 -68t-45 -27v-260h-106z" />
    <glyph glyph-name="Z" unicode="Z" horiz-adv-x="555" 
d="M55 551v99h332q74 0 106 -27.5t32 -83.5q0 -39 -15 -69t-56 -64l-295 -244q-30 -24 -30 -43q0 -20 37 -20h361v-99h-359q-80 0 -110 26.5t-30 77.5q0 41 14.5 71.5t56.5 64.5l298 246q25 20 25 39q0 26 -41 26h-326z" />
    <glyph glyph-name="bracketleft" unicode="[" horiz-adv-x="337" 
d="M296 -158v-83h-114q-56 0 -80.5 24.5t-24.5 80.5v772q0 56 24.5 80.5t80.5 24.5h114v-83h-92q-33 0 -33 -33v-750q0 -33 33 -33h92z" />
    <glyph glyph-name="backslash" unicode="\" horiz-adv-x="333" 
d="M-5 741h96l247 -771h-94z" />
    <glyph glyph-name="bracketright" unicode="]" horiz-adv-x="337" 
d="M41 -241v83h92q33 0 33 33v750q0 33 -33 33h-92v83h114q55 0 80 -24.5t25 -80.5v-772q0 -56 -25 -80.5t-80 -24.5h-114z" />
    <glyph glyph-name="asciicircum" unicode="^" horiz-adv-x="520" 
d="M342 634l116 -271h-94l-88 235q-8 20 -16 20t-16 -20l-88 -235h-93l115 271q16 38 34 52t48 14t48 -14t34 -52z" />
    <glyph glyph-name="underscore" unicode="_" horiz-adv-x="502" 
d="M504 -17v-79h-506v79h506z" />
    <glyph glyph-name="grave" unicode="`" horiz-adv-x="281" 
d="M140 750l-86 136h107l66 -136h-87z" />
    <glyph glyph-name="a" unicode="a" horiz-adv-x="490" 
d="M446 343v-194q0 -83 -51 -121.5t-162 -38.5q-203 0 -203 154q0 80 52.5 115.5t151.5 35.5h110v49q0 44 -29.5 60t-88.5 16q-91 0 -142 -19v90q51 17 136 17q109 0 167.5 -37.5t58.5 -126.5zM344 154v62h-110q-52 0 -76.5 -16.5t-24.5 -54.5q0 -40 26.5 -54.5t71.5 -14.5
q56 0 84.5 15.5t28.5 62.5z" />
    <glyph glyph-name="b" unicode="b" horiz-adv-x="558" 
d="M57 203v497h102v-258q41 65 147 65q208 0 208 -218v-86q0 -109 -57 -161.5t-172 -52.5q-107 0 -167.5 53.5t-60.5 160.5zM411 205v86q0 63 -26 91.5t-99 28.5t-100 -28.5t-27 -91.5v-86q0 -62 26.5 -90.5t100.5 -28.5t99.5 28t25.5 91z" />
    <glyph glyph-name="c" unicode="c" horiz-adv-x="429" 
d="M44 199v98q0 98 58 154t173 56q63 0 118 -24v-97q-60 25 -116 25q-72 0 -101 -26.5t-29 -88.5v-94q0 -65 31.5 -90.5t105.5 -25.5q60 0 118 22v-96q-62 -23 -123 -23q-120 0 -177.5 52.5t-57.5 157.5z" />
    <glyph glyph-name="d" unicode="d" horiz-adv-x="552" 
d="M501 700v-497q0 -107 -60 -160.5t-168 -53.5q-229 0 -229 214v86q0 218 209 218q105 0 146 -65v258h102zM147 291v-86q0 -63 25.5 -91t99.5 -28t100.5 28.5t26.5 90.5v86q0 63 -27 91.5t-100 28.5t-99 -28.5t-26 -91.5z" />
    <glyph glyph-name="e" unicode="e" horiz-adv-x="513" 
d="M478 300q0 -55 -10 -90h-321v-22q0 -55 33.5 -78.5t109.5 -23.5q104 0 171 29v-97q-70 -29 -171 -29q-126 0 -186 50.5t-60 163.5v87q0 217 222 217q104 0 158 -52.5t54 -154.5zM147 319v-25h234v25q0 99 -118 99q-116 0 -116 -99z" />
    <glyph glyph-name="f" unicode="f" horiz-adv-x="392" 
d="M14 400v80l87 16v58q0 95 47.5 134t132.5 39q59 0 107 -15v-96q-44 14 -100 14q-85 0 -85 -68v-66h175v-96h-175v-400h-102v400h-87z" />
    <glyph glyph-name="g" unicode="g" horiz-adv-x="515" 
d="M477 321q0 -180 -215 -180q-72 0 -93 -6t-21 -26q0 -17 22 -23t92 -6q130 0 179 -31.5t49 -111.5q0 -86 -49.5 -120.5t-178.5 -34.5q-132 0 -181.5 33t-49.5 103t53 101q-38 23 -38 70q0 67 79 86q-81 39 -81 146v9q0 84 57.5 130.5t160.5 46.5q52 0 95 -16l91 69l58 -56
l-67 -72q38 -38 38 -102v-9zM374 321v9q0 42 -25 65t-87 23q-63 0 -89 -23t-26 -65v-9q0 -46 25 -68.5t90 -22.5q64 0 88 22.5t24 68.5zM262 -8q-58 0 -91 4q-37 -17 -37 -64q0 -39 27.5 -51t100.5 -12q69 0 97 12t28 53q0 38 -27 48t-98 10z" />
    <glyph glyph-name="h" unicode="h" horiz-adv-x="553" 
d="M64 0v700h103v-255q47 62 155 62q81 0 129 -41.5t48 -131.5v-334h-103v318q0 49 -25 71t-81 22q-61 0 -92 -29t-31 -97v-285h-103z" />
    <glyph glyph-name="i" unicode="i" horiz-adv-x="233" 
d="M65 0v496h103v-496h-103zM53 649q0 26 19 44.5t45 18.5t44.5 -18.5t18.5 -44.5t-18.5 -44.5t-44.5 -18.5t-45 18.5t-19 44.5z" />
    <glyph glyph-name="j" unicode="j" horiz-adv-x="228" 
d="M51 649q0 26 18.5 44.5t44.5 18.5t44.5 -18.5t18.5 -44.5t-18.5 -44.5t-44.5 -18.5t-44.5 18.5t-18.5 44.5zM165 496v-370q0 -136 -40 -215t-118 -132l-52 82q53 40 80.5 97.5t27.5 160.5v377h102z" />
    <glyph glyph-name="k" unicode="k" horiz-adv-x="521" 
d="M64 0v700h102v-700h-102zM240 350l129 146h129l-176 -198q-20 -20 -20 -36q0 -14 19 -35l197 -227h-129l-149 173q-40 46 -40 92q0 24 8 41.5t32 43.5z" />
    <glyph glyph-name="l" unicode="l" horiz-adv-x="254" 
d="M55 140v560h103v-540q0 -40 11.5 -55.5t35.5 -15.5q25 0 38 6v-94q-21 -9 -55 -9q-60 0 -96.5 36t-36.5 112z" />
    <glyph glyph-name="m" unicode="m" horiz-adv-x="813" 
d="M157 313v-313h-103v313q0 194 203 194q110 0 150 -73q41 73 150 73q105 0 153.5 -49t48.5 -145v-313h-103v313q0 51 -20.5 74.5t-78.5 23.5t-79.5 -23.5t-21.5 -74.5v-313h-100v313q0 51 -20.5 74.5t-78.5 23.5t-79 -23.5t-21 -74.5z" />
    <glyph glyph-name="n" unicode="n" horiz-adv-x="543" 
d="M157 313v-313h-103v313q0 194 218 194q114 0 165.5 -48.5t51.5 -145.5v-313h-103v313q0 51 -23.5 74.5t-90.5 23.5t-91 -23.5t-24 -74.5z" />
    <glyph glyph-name="o" unicode="o" horiz-adv-x="546" 
d="M399 205v86q0 63 -26 91.5t-99 28.5t-100 -28.5t-27 -91.5v-86q0 -62 26.5 -90.5t100.5 -28.5q73 0 99 28t26 91zM274 -11q-120 0 -175 54t-55 162v86q0 105 57 160.5t173 55.5q119 0 173.5 -54t54.5 -162v-86q0 -104 -56.5 -160t-171.5 -56z" />
    <glyph glyph-name="p" unicode="p" horiz-adv-x="558" 
d="M57 -200v494q0 107 60 160t168 53q116 0 172.5 -52t56.5 -161v-87q0 -218 -208 -218q-106 0 -147 65v-254h-102zM411 205v86q0 63 -25.5 91.5t-99.5 28.5q-73 0 -100 -28.5t-27 -91.5v-86q0 -62 26.5 -90.5t100.5 -28.5q73 0 99 28t26 91z" />
    <glyph glyph-name="q" unicode="q" horiz-adv-x="558" 
d="M501 294v-494h-102v254q-41 -65 -146 -65q-209 0 -209 218v87q0 109 57 161t172 52q108 0 168 -53t60 -160zM147 291v-86q0 -63 26 -91t99 -28q74 0 100.5 28.5t26.5 90.5v86q0 63 -27 91.5t-100 28.5q-74 0 -99.5 -28.5t-25.5 -91.5z" />
    <glyph glyph-name="r" unicode="r" horiz-adv-x="324" 
d="M157 323v-323h-103v330q0 177 189 177q31 0 62 -7v-98q-25 9 -62 9q-50 0 -68 -21t-18 -67z" />
    <glyph glyph-name="s" unicode="s" horiz-adv-x="463" 
d="M40 18v97q97 -31 186 -31q51 0 72 9.5t21 33.5q0 19 -13 31t-51 29l-108 48q-51 22 -75 51.5t-24 84.5q0 70 45.5 103t145.5 33q84 0 158 -30v-96q-72 31 -160 31q-49 0 -68.5 -9.5t-19.5 -31.5q0 -18 10.5 -28.5t36.5 -22.5l116 -50q55 -23 81 -54t26 -87
q0 -72 -48 -106t-154 -34q-92 0 -177 29z" />
    <glyph glyph-name="t" unicode="t" horiz-adv-x="433" 
d="M14 400v80l87 16l17 130h85v-130h182v-96h-182v-227q0 -87 78 -87q71 0 122 21v-96q-49 -21 -122 -21q-180 0 -180 184v226h-87z" />
    <glyph glyph-name="u" unicode="u" horiz-adv-x="537" 
d="M154 496v-312q0 -51 24 -74.5t91 -23.5t90.5 23.5t23.5 74.5v312h103v-312q0 -97 -51.5 -146t-165.5 -49q-218 0 -218 195v312h103z" />
    <glyph glyph-name="v" unicode="v" horiz-adv-x="534" 
d="M129 496l88 -369q7 -29 18 -38.5t32 -9.5q22 0 32.5 9t17.5 39l88 369h105l-91 -374q-18 -74 -47 -103t-105 -29t-105 28.5t-47 103.5l-91 374h105z" />
    <glyph glyph-name="w" unicode="w" horiz-adv-x="827" 
d="M135 496l53 -369q4 -29 13 -39t27 -10t27 10.5t13 38.5l39 271q8 53 31 75.5t75 22.5q50 0 74.5 -21t32.5 -77l39 -271q4 -29 13 -39t27 -10t27 10.5t13 38.5l53 369h105l-56 -374q-11 -69 -41 -101t-101 -32q-64 0 -91 32t-37 101l-33 244q-4 26 -8.5 34t-16.5 8
q-11 0 -15.5 -8t-8.5 -34l-34 -244q-10 -69 -36.5 -101t-90.5 -32q-72 0 -102 31.5t-40 101.5l-56 374h105z" />
    <glyph glyph-name="x" unicode="x" horiz-adv-x="556" 
d="M153 496l83 -149q14 -24 21.5 -31t20.5 -7t20 6.5t21 31.5l83 149h113l-92 -156q-23 -39 -34.5 -53.5t-26.5 -22.5q4 -2 7.5 -4t7 -5.5l5.5 -5.5t6 -7l6 -7.5t6.5 -9.5t6.5 -10t7.5 -12.5t8.5 -14.5l112 -188h-114l-102 180q-14 26 -21 32.5t-20 6.5t-20.5 -7t-21.5 -32
l-102 -180h-114l113 188q23 38 34 53t26 23q-15 8 -26 22.5t-34 53.5l-93 156h113z" />
    <glyph glyph-name="y" unicode="y" horiz-adv-x="534" 
d="M129 496l90 -367q7 -30 18.5 -39.5t35.5 -9.5q18 0 29 10t18 39l85 367h105l-119 -496q-26 -111 -86.5 -167t-163.5 -54l-21 89q72 -1 110 33t56 98q-15 -7 -46 -7q-56 0 -80 31t-41 97l-95 376h105z" />
    <glyph glyph-name="z" unicode="z" horiz-adv-x="482" 
d="M62 403v93h270q64 0 90 -23.5t26 -79.5q0 -39 -15 -65t-62 -55l-222 -135q-21 -13 -21 -27q0 -18 32 -18h288v-93h-299q-115 0 -115 102q0 73 76 120l220 135q24 16 24 29q0 17 -32 17h-260z" />
    <glyph glyph-name="braceleft" unicode="{" horiz-adv-x="393" 
d="M28 217v84h27q41 0 63 38.5t22 107.5v115q0 88 43 135t120 47h49v-83h-39q-41 0 -60 -27t-19 -85v-118q0 -132 -80 -172q80 -37 80 -172v-136q0 -58 19 -85t60 -27h39v-83h-49q-75 0 -119 47t-44 135v133q0 69 -22 107.5t-63 38.5h-27z" />
    <glyph glyph-name="bar" unicode="|" horiz-adv-x="249" 
d="M171 741v-982h-94v982h94z" />
    <glyph glyph-name="braceright" unicode="}" horiz-adv-x="393" 
d="M364 301v-84h-27q-41 0 -63 -38.5t-22 -107.5v-133q0 -88 -43.5 -135t-118.5 -47h-49v83h39q79 0 79 112v136q0 135 80 172q-80 39 -80 172v118q0 112 -79 112h-39v83h49q77 0 119.5 -47t42.5 -135v-115q0 -69 22 -107.5t63 -38.5h27z" />
    <glyph glyph-name="asciitilde" unicode="~" horiz-adv-x="558" 
d="M39 201q0 82 36.5 125t100.5 43q37 0 68.5 -15.5t49 -33.5t41 -33.5t45.5 -15.5q59 0 59 92h79q0 -82 -35.5 -125t-97.5 -43q-46 0 -83 24.5t-66.5 48.5t-57.5 24q-59 0 -59 -91h-80z" />
    <glyph glyph-name="exclamdown" unicode="&#xa1;" horiz-adv-x="276" 
d="M143 -160h-100v219q0 141 18 245h64q18 -97 18 -245v-219zM159 434q0 -27 -19 -46t-46 -19t-46 19t-19 46q0 28 19 47t46 19t46 -19t19 -47z" />
    <glyph glyph-name="cent" unicode="&#xa2;" horiz-adv-x="427" 
d="M222 -18v83q-178 22 -178 208v95q0 87 44.5 141.5t133.5 66.5v83h82v-82q41 -4 83 -21v-97q-58 24 -113 24q-70 0 -98.5 -27t-28.5 -90v-90q0 -65 31 -91.5t101 -26.5q57 0 117 21v-96q-53 -16 -92 -20v-81h-82z" />
    <glyph glyph-name="sterling" unicode="&#xa3;" horiz-adv-x="515" 
d="M484 99v-99h-269q-60 0 -87 27t-27 87v173h-83v75h83v70q0 115 51.5 171t158.5 56q61 0 130 -20v-97q-55 19 -126 19q-64 0 -86 -31.5t-22 -108.5v-59h165v-75h-165v-150q0 -20 9 -29t30 -9h238z" />
    <glyph glyph-name="currency" unicode="&#xa4;" horiz-adv-x="663" 
d="M332 177q-32 0 -61 12l-141 -142l-72 72l134 132q-18 30 -18 69q0 38 18 68l-134 134l72 71l140 -142q29 13 62 13q34 0 61 -13l139 141l72 -70l-132 -132q18 -31 18 -70q0 -38 -19 -70l133 -130l-72 -73l-140 142q-28 -12 -60 -12zM332 246q32 0 53.5 21t21.5 53
t-21.5 53.5t-53.5 21.5t-53.5 -21.5t-21.5 -53.5t21.5 -53t53.5 -21z" />
    <glyph glyph-name="yen" unicode="&#xa5;" horiz-adv-x="620" 
d="M87 221v72h140q-26 10 -40.5 28t-37.5 66l-124 263h118l100 -231q20 -47 32 -59.5t35 -12.5q24 0 36 12.5t32 59.5l99 231h118l-124 -263q-23 -48 -37.5 -66t-40.5 -28h140v-72h-169v-68h169v-72h-169v-81h-106v81h-171v72h171v68h-171z" />
    <glyph glyph-name="brokenbar" unicode="&#xa6;" horiz-adv-x="247" 
d="M171 741v-394h-94v394h94zM171 174v-415h-94v415h94z" />
    <glyph glyph-name="section" unicode="&#xa7;" horiz-adv-x="535" 
d="M60 -185v100q86 -39 189 -39q66 0 95.5 15.5t29.5 51.5q0 26 -18 45t-69 50l-132 81q-101 61 -101 165q0 97 78 130q-78 58 -78 143q0 78 52 116.5t160 38.5q94 0 173 -37v-101q-72 38 -172 38q-57 0 -81 -13t-24 -46q0 -24 13.5 -39.5t50.5 -37.5l136 -81
q62 -37 91.5 -75t29.5 -99q0 -99 -83 -134q41 -32 62 -65.5t21 -80.5q0 -164 -236 -164q-106 0 -187 38zM159 293q0 -29 14 -50.5t51 -44.5l100 -62q54 14 54 75q0 56 -89 108l-79 46q-27 -5 -39 -22t-12 -50z" />
    <glyph glyph-name="dieresis" unicode="&#xa8;" horiz-adv-x="385" 
d="M47 806q0 23 16.5 40t39.5 17q24 0 40.5 -17t16.5 -40t-16.5 -39.5t-40.5 -16.5q-23 0 -39.5 16.5t-16.5 39.5zM225 806q0 23 17 40t40 17t39.5 -17t16.5 -40t-16.5 -39.5t-39.5 -16.5t-40 16.5t-17 39.5z" />
    <glyph glyph-name="copyright" unicode="&#xa9;" horiz-adv-x="841" 
d="M259 307v93q0 79 48.5 118.5t136.5 39.5q52 0 95 -16v-79q-40 17 -92 17q-54 0 -77.5 -20.5t-23.5 -64.5v-88q0 -43 26 -62.5t80 -19.5q52 0 95 15v-78q-48 -16 -97 -16q-96 0 -143.5 38.5t-47.5 122.5zM62 352q0 149 104.5 254t253.5 105t254 -105t105 -254t-105 -253.5
t-254 -104.5q-148 0 -253 105t-105 253zM124 352q0 -122 87 -209t209 -87q123 0 210 87t87 209q0 123 -87 210.5t-210 87.5q-122 0 -209 -87.5t-87 -210.5z" />
    <glyph glyph-name="guillemotleft" unicode="&#xab;" horiz-adv-x="519" 
d="M273 44h-96l-119 144q-29 34 -29 62t29 62l119 144h96l-147 -179q-14 -15 -14 -27q0 -10 14 -27zM475 44h-95l-120 144q-29 36 -29 62q0 28 29 62l120 144h95l-146 -179q-14 -15 -14 -27t14 -27z" />
    <glyph glyph-name="logicalnot" unicode="&#xac;" horiz-adv-x="542" 
d="M496 359v-167h-95v153q0 33 -33 33h-343v86h365q56 0 81 -25t25 -80z" />
    <glyph glyph-name="registered" unicode="&#xae;" horiz-adv-x="841" 
d="M62 352q0 149 104.5 254t253.5 105t254 -105t105 -254t-105 -253.5t-254 -104.5q-148 0 -253 105t-105 253zM124 352q0 -122 87 -209t209 -87q123 0 210 87t87 209q0 123 -87 210.5t-210 87.5q-122 0 -209 -87.5t-87 -210.5zM486 155l-68 148h-51v-148h-86v284
q0 58 26.5 84t83.5 26h48q69 0 104 -31.5t35 -90.5q0 -89 -76 -116l80 -156h-96zM436 473h-33q-36 0 -36 -36v-61h66q31 0 44 11t13 37t-12 37.5t-42 11.5z" />
    <glyph glyph-name="degree" unicode="&#xb0;" horiz-adv-x="401" 
d="M354 588q0 -64 -44 -108.5t-109 -44.5q-66 0 -110 43.5t-44 109.5q0 65 44.5 109t109.5 44t109 -44.5t44 -108.5zM279 588q0 34 -22 57t-56 23t-56.5 -23t-22.5 -57t22.5 -56.5t56.5 -22.5q31 0 54.5 23t23.5 56z" />
    <glyph glyph-name="plusminus" unicode="&#xb1;" horiz-adv-x="560" 
d="M509 106v-86h-458v86h182v171h-182v87h182v182h94v-182h182v-87h-182v-171h182z" />
    <glyph glyph-name="acute" unicode="&#xb4;" horiz-adv-x="281" 
d="M227 886l-86 -136h-87l66 136h107z" />
    <glyph glyph-name="mu" unicode="&#xb5;" horiz-adv-x="550" 
d="M64 -200v696h102v-319q0 -49 27 -70t89 -21q65 0 89.5 22.5t24.5 75.5v312h103v-312q0 -94 -56 -144.5t-139 -50.5q-97 0 -138 60v-249h-102z" />
    <glyph glyph-name="paragraph" unicode="&#xb6;" horiz-adv-x="574" 
d="M24 457q0 87 56.5 140t160.5 53h148q60 0 87 -27t27 -87v-628h-82v603q0 53 -53 53h-66v-335q0 -110 -30.5 -189.5t-118.5 -145.5l-45 70q112 76 112 265v34q-86 0 -141 55.5t-55 138.5z" />
    <glyph glyph-name="periodcentered" unicode="&#xb7;" horiz-adv-x="214" 
d="M42 321q0 27 19 46t46 19t46 -19t19 -46q0 -28 -19 -47t-46 -19t-46 19t-19 47z" />
    <glyph glyph-name="cedilla" unicode="&#xb8;" horiz-adv-x="244" 
d="M81 25h57l-15 -64q44 2 64.5 -13.5t20.5 -55.5q0 -47 -25.5 -68t-80.5 -21q-26 0 -59 10v54q26 -7 47 -7q42 0 42 31t-41 31q-17 0 -37 -4z" />
    <glyph glyph-name="guillemotright" unicode="&#xbb;" horiz-adv-x="519" 
d="M342 44h-96l147 179q14 17 14 27q0 12 -14 27l-147 179h96l120 -144q28 -35 28 -62q0 -28 -28 -62zM140 44h-96l147 179q14 17 14 27t-14 27l-147 179h96l119 -144q29 -34 29 -62q0 -26 -29 -62z" />
    <glyph glyph-name="questiondown" unicode="&#xbf;" horiz-adv-x="425" 
d="M364 442q0 -27 -19 -46t-47 -19q-27 0 -46 19t-19 46t19 46t46 19q28 0 47 -19t19 -46zM47 29q0 39 9.5 69t30.5 52.5t39 36t49 31.5q68 35 78 93h90q6 -29 -1 -55t-26.5 -48t-37.5 -36.5t-43 -30.5q-32 -21 -44.5 -31t-25 -31.5t-12.5 -49.5q0 -53 24.5 -73t85.5 -20
q72 0 118 23v-103q-61 -18 -117 -18q-110 0 -163.5 44t-53.5 147z" />
    <glyph glyph-name="Agrave" unicode="&#xc0;" horiz-adv-x="633" 
d="M466 491l146 -491h-105l-53 180h-275l-53 -180h-105l146 491q30 102 57.5 135t92.5 33t92 -33t57 -135zM268 490l-62 -215h221l-62 215q-14 48 -22.5 61.5t-25.5 13.5t-26.5 -14t-22.5 -61zM276 702l-86 136h107l66 -136h-87z" />
    <glyph glyph-name="Aacute" unicode="&#xc1;" horiz-adv-x="633" 
d="M466 491l146 -491h-105l-53 180h-275l-53 -180h-105l146 491q30 102 57.5 135t92.5 33t92 -33t57 -135zM268 490l-62 -215h221l-62 215q-14 48 -22.5 61.5t-25.5 13.5t-26.5 -14t-22.5 -61zM439 838l-86 -136h-87l66 136h107z" />
    <glyph glyph-name="Acircumflex" unicode="&#xc2;" horiz-adv-x="633" 
d="M466 491l146 -491h-105l-53 180h-275l-53 -180h-105l146 491q30 102 57.5 135t92.5 33t92 -33t57 -135zM268 490l-62 -215h221l-62 215q-14 48 -22.5 61.5t-25.5 13.5t-26.5 -14t-22.5 -61zM183 704l57 89q17 26 33 35t44 9t44 -9t33 -35l58 -89h-81l-33 54
q-10 17 -21 17q-10 0 -21 -17l-33 -54h-80z" />
    <glyph glyph-name="Atilde" unicode="&#xc3;" horiz-adv-x="633" 
d="M466 491l146 -491h-105l-53 180h-275l-53 -180h-105l146 491q30 102 57.5 135t92.5 33t92 -33t57 -135zM268 490l-62 -215h221l-62 215q-14 48 -22.5 61.5t-25.5 13.5t-26.5 -14t-22.5 -61zM150 711q0 123 101 123q36 0 79.5 -29t57.5 -29q33 0 33 53h64
q0 -123 -100 -123q-37 0 -80.5 29t-57.5 29q-33 0 -33 -53h-64z" />
    <glyph glyph-name="Adieresis" unicode="&#xc4;" horiz-adv-x="633" 
d="M466 491l146 -491h-105l-53 180h-275l-53 -180h-105l146 491q30 102 57.5 135t92.5 33t92 -33t57 -135zM268 490l-62 -215h221l-62 215q-14 48 -22.5 61.5t-25.5 13.5t-26.5 -14t-22.5 -61zM172 770q0 23 16.5 40t39.5 17q24 0 40.5 -17t16.5 -40t-16.5 -39.5
t-40.5 -16.5q-23 0 -39.5 16.5t-16.5 39.5zM350 770q0 23 17 40t40 17t39.5 -17t16.5 -40t-16.5 -39.5t-39.5 -16.5t-40 16.5t-17 39.5z" />
    <glyph glyph-name="Aring" unicode="&#xc5;" horiz-adv-x="633" 
d="M466 491l146 -491h-105l-53 180h-275l-53 -180h-105l146 491q30 102 57.5 135t92.5 33t92 -33t57 -135zM268 490l-62 -215h221l-62 215q-14 48 -22.5 61.5t-25.5 13.5t-26.5 -14t-22.5 -61zM316 680q-38 0 -64 24.5t-26 65.5q0 42 26 66.5t64 24.5q39 0 65.5 -24
t26.5 -67q0 -41 -26.5 -65.5t-65.5 -24.5zM316 730q19 0 30.5 11.5t11.5 28.5q0 18 -11.5 30t-30.5 12q-18 0 -29.5 -12t-11.5 -30q0 -17 11.5 -28.5t29.5 -11.5z" />
    <glyph glyph-name="AE" unicode="&#xc6;" horiz-adv-x="890" 
d="M506 286v-149q0 -38 39 -38h299v-99h-329q-60 0 -87 27t-27 87v66h-223l-52 -180h-105l143 482q28 94 62.5 131t107.5 37h510v-99h-299q-39 0 -39 -38v-128h298v-99h-298zM265 481l-60 -206h196v240q0 25 5 36h-79q-27 0 -39 -15t-23 -55z" />
    <glyph glyph-name="Ccedilla" unicode="&#xc7;" horiz-adv-x="529" 
d="M161 399v-160q0 -73 36 -112t127 -39q105 0 169 40v-99q-66 -38 -155 -40l-6 -28q44 2 64.5 -13.5t20.5 -55.5q0 -47 -25.5 -68t-81.5 -21q-26 0 -58 10v54q23 -7 47 -7t33 7t9 24t-9 24t-33 7q-16 0 -36 -4l18 73q-115 8 -171.5 68t-56.5 180v160q0 260 269 260
q57 0 92 -10t76 -31v-99q-76 42 -170 42q-84 0 -121.5 -39.5t-37.5 -122.5z" />
    <glyph glyph-name="Egrave" unicode="&#xc8;" horiz-adv-x="562" 
d="M178 286v-149q0 -38 39 -38h298v-99h-328q-60 0 -87 27t-27 87v422q0 60 27 87t87 27h328v-99h-298q-39 0 -39 -38v-128h297v-99h-297zM259 702l-86 136h107l66 -136h-87z" />
    <glyph glyph-name="Eacute" unicode="&#xc9;" horiz-adv-x="562" 
d="M178 286v-149q0 -38 39 -38h298v-99h-328q-60 0 -87 27t-27 87v422q0 60 27 87t87 27h328v-99h-298q-39 0 -39 -38v-128h297v-99h-297zM425 838l-86 -136h-87l66 136h107z" />
    <glyph glyph-name="Ecircumflex" unicode="&#xca;" horiz-adv-x="562" 
d="M178 286v-149q0 -38 39 -38h298v-99h-328q-60 0 -87 27t-27 87v422q0 60 27 87t87 27h328v-99h-298q-39 0 -39 -38v-128h297v-99h-297zM165 704l57 89q17 26 33 35t44 9t44 -9t33 -35l58 -89h-81l-33 54q-10 17 -21 17q-10 0 -21 -17l-33 -54h-80z" />
    <glyph glyph-name="Edieresis" unicode="&#xcb;" horiz-adv-x="562" 
d="M178 286v-149q0 -38 39 -38h298v-99h-328q-60 0 -87 27t-27 87v422q0 60 27 87t87 27h328v-99h-298q-39 0 -39 -38v-128h297v-99h-297zM156 770q0 23 16.5 40t39.5 17q24 0 40.5 -17t16.5 -40t-16.5 -39.5t-40.5 -16.5q-23 0 -39.5 16.5t-16.5 39.5zM334 770q0 23 17 40
t40 17t39.5 -17t16.5 -40t-16.5 -39.5t-39.5 -16.5t-40 16.5t-17 39.5z" />
    <glyph glyph-name="Igrave" unicode="&#xcc;" horiz-adv-x="265" 
d="M80 0v650h105v-650h-105zM86 702l-86 136h107l66 -136h-87z" />
    <glyph glyph-name="Iacute" unicode="&#xcd;" horiz-adv-x="265" 
d="M80 0v650h105v-650h-105zM264 838l-86 -136h-87l66 136h107z" />
    <glyph glyph-name="Icircumflex" unicode="&#xce;" horiz-adv-x="265" 
d="M80 0v650h105v-650h-105zM-2 704l57 89q17 26 33 35t44 9t44 -9t33 -35l58 -89h-81l-33 54q-10 17 -21 17q-10 0 -21 -17l-33 -54h-80z" />
    <glyph glyph-name="Idieresis" unicode="&#xcf;" horiz-adv-x="265" 
d="M80 0v650h105v-650h-105zM-13 770q0 23 16.5 40t39.5 17q24 0 40.5 -17t16.5 -40t-16.5 -39.5t-40.5 -16.5q-23 0 -39.5 16.5t-16.5 39.5zM165 770q0 23 17 40t40 17t39.5 -17t16.5 -40t-16.5 -39.5t-39.5 -16.5t-40 16.5t-17 39.5z" />
    <glyph glyph-name="Eth" unicode="&#xd0;" horiz-adv-x="630" 
d="M92 114v173h-76v76h76v173q0 60 27 87t87 27h83q158 0 226 -55.5t68 -200.5v-138q0 -137 -70 -196.5t-224 -59.5h-83q-60 0 -87 27t-27 87zM289 99q108 0 147 34t39 123v138q0 88 -39 122.5t-147 34.5h-53q-39 0 -39 -38v-150h92v-76h-92v-150q0 -38 39 -38h53z" />
    <glyph glyph-name="Ntilde" unicode="&#xd1;" horiz-adv-x="660" 
d="M73 0v528q0 72 28 102t90 30q53 0 79 -23t43 -83l126 -447q5 -17 10.5 -22.5t15.5 -5.5q20 0 20 33v538h102v-528q0 -73 -27 -102.5t-87 -29.5q-55 0 -82 24.5t-45 86.5l-124 437q-5 20 -10.5 26.5t-16.5 6.5q-20 0 -20 -35v-536h-102zM162 711q0 123 101 123
q36 0 79.5 -29t57.5 -29q33 0 33 53h64q0 -123 -100 -123q-37 0 -80.5 29t-57.5 29q-33 0 -33 -53h-64z" />
    <glyph glyph-name="Ograve" unicode="&#xd2;" 
d="M477 252v143q0 88 -32 126.5t-127 38.5t-127 -38.5t-32 -126.5v-143q0 -87 32 -126t127 -39t127 39t32 126zM318 -12q-149 0 -207 67.5t-58 196.5v143q0 129 58.5 196.5t206.5 67.5q149 0 207 -67.5t58 -196.5v-143q0 -129 -58.5 -196.5t-206.5 -67.5zM278 702l-86 136
h107l66 -136h-87z" />
    <glyph glyph-name="Oacute" unicode="&#xd3;" 
d="M477 252v143q0 88 -32 126.5t-127 38.5t-127 -38.5t-32 -126.5v-143q0 -87 32 -126t127 -39t127 39t32 126zM318 -12q-149 0 -207 67.5t-58 196.5v143q0 129 58.5 196.5t206.5 67.5q149 0 207 -67.5t58 -196.5v-143q0 -129 -58.5 -196.5t-206.5 -67.5zM429 838l-86 -136
h-87l66 136h107z" />
    <glyph glyph-name="Ocircumflex" unicode="&#xd4;" 
d="M477 252v143q0 88 -32 126.5t-127 38.5t-127 -38.5t-32 -126.5v-143q0 -87 32 -126t127 -39t127 39t32 126zM318 -12q-149 0 -207 67.5t-58 196.5v143q0 129 58.5 196.5t206.5 67.5q149 0 207 -67.5t58 -196.5v-143q0 -129 -58.5 -196.5t-206.5 -67.5zM184 704l57 89
q17 26 33 35t44 9t44 -9t33 -35l58 -89h-81l-33 54q-10 17 -21 17q-10 0 -21 -17l-33 -54h-80z" />
    <glyph glyph-name="Otilde" unicode="&#xd5;" 
d="M477 252v143q0 88 -32 126.5t-127 38.5t-127 -38.5t-32 -126.5v-143q0 -87 32 -126t127 -39t127 39t32 126zM318 -12q-149 0 -207 67.5t-58 196.5v143q0 129 58.5 196.5t206.5 67.5q149 0 207 -67.5t58 -196.5v-143q0 -129 -58.5 -196.5t-206.5 -67.5zM151 711
q0 123 101 123q36 0 79.5 -29t57.5 -29q33 0 33 53h64q0 -123 -100 -123q-37 0 -80.5 29t-57.5 29q-33 0 -33 -53h-64z" />
    <glyph glyph-name="Odieresis" unicode="&#xd6;" 
d="M477 252v143q0 88 -32 126.5t-127 38.5t-127 -38.5t-32 -126.5v-143q0 -87 32 -126t127 -39t127 39t32 126zM318 -12q-149 0 -207 67.5t-58 196.5v143q0 129 58.5 196.5t206.5 67.5q149 0 207 -67.5t58 -196.5v-143q0 -129 -58.5 -196.5t-206.5 -67.5zM173 770
q0 23 16.5 40t39.5 17q24 0 40.5 -17t16.5 -40t-16.5 -39.5t-40.5 -16.5q-23 0 -39.5 16.5t-16.5 39.5zM351 770q0 23 17 40t40 17t39.5 -17t16.5 -40t-16.5 -39.5t-39.5 -16.5t-40 16.5t-17 39.5z" />
    <glyph glyph-name="multiply" unicode="&#xd7;" horiz-adv-x="550" 
d="M337 325l159 -160l-61 -61l-160 159l-160 -159l-61 61l159 160l-159 160l61 61l160 -159l160 159l61 -61z" />
    <glyph glyph-name="Oslash" unicode="&#xd8;" 
d="M318 -12q-80 0 -135 22l-34 -58l-69 39l35 61q-62 59 -62 200v143q0 129 58.5 196.5t206.5 67.5q82 0 134 -23l35 60l69 -39l-36 -61q63 -62 63 -201v-143q0 -129 -58.5 -196.5t-206.5 -67.5zM477 252v143q0 75 -21 109l-232 -401q33 -16 94 -16q95 0 127 39t32 126z
M159 252q0 -74 20 -107l230 400q-33 15 -91 15q-95 0 -127 -38.5t-32 -126.5v-143z" />
    <glyph glyph-name="Ugrave" unicode="&#xd9;" horiz-adv-x="632" 
d="M63 217v433h105v-433q0 -70 37.5 -99.5t110.5 -29.5t110.5 29.5t37.5 99.5v433h106v-433q0 -118 -67.5 -173t-186.5 -55q-253 0 -253 228zM269 702l-86 136h107l66 -136h-87z" />
    <glyph glyph-name="Uacute" unicode="&#xda;" horiz-adv-x="632" 
d="M63 217v433h105v-433q0 -70 37.5 -99.5t110.5 -29.5t110.5 29.5t37.5 99.5v433h106v-433q0 -118 -67.5 -173t-186.5 -55q-253 0 -253 228zM444 838l-86 -136h-87l66 136h107z" />
    <glyph glyph-name="Ucircumflex" unicode="&#xdb;" horiz-adv-x="632" 
d="M63 217v433h105v-433q0 -70 37.5 -99.5t110.5 -29.5t110.5 29.5t37.5 99.5v433h106v-433q0 -118 -67.5 -173t-186.5 -55q-253 0 -253 228zM182 704l57 89q17 26 33 35t44 9t44 -9t33 -35l58 -89h-81l-33 54q-10 17 -21 17q-10 0 -21 -17l-33 -54h-80z" />
    <glyph glyph-name="Udieresis" unicode="&#xdc;" horiz-adv-x="632" 
d="M63 217v433h105v-433q0 -70 37.5 -99.5t110.5 -29.5t110.5 29.5t37.5 99.5v433h106v-433q0 -118 -67.5 -173t-186.5 -55q-253 0 -253 228zM171 770q0 23 16.5 40t39.5 17q24 0 40.5 -17t16.5 -40t-16.5 -39.5t-40.5 -16.5q-23 0 -39.5 16.5t-16.5 39.5zM349 770
q0 23 17 40t40 17t39.5 -17t16.5 -40t-16.5 -39.5t-39.5 -16.5t-40 16.5t-17 39.5z" />
    <glyph glyph-name="Yacute" unicode="&#xdd;" horiz-adv-x="632" 
d="M263 0v260q-30 10 -46.5 27t-43.5 68l-159 295h118l117 -231q24 -46 35.5 -58.5t31.5 -12.5t31 12.5t35 58.5l118 231h118l-160 -295q-28 -51 -44 -68t-45 -27v-260h-106zM448 838l-86 -136h-87l66 136h107z" />
    <glyph glyph-name="Thorn" unicode="&#xde;" horiz-adv-x="591" 
d="M73 0v641h105v-104h154q116 0 169.5 -52.5t53.5 -156.5t-53.5 -156.5t-169.5 -52.5h-154v-119h-105zM332 438h-154v-220h154q65 0 91.5 24.5t26.5 85.5q0 60 -27 85t-91 25z" />
    <glyph glyph-name="germandbls" unicode="&#xdf;" horiz-adv-x="554" 
d="M506 152q0 -86 -51.5 -124.5t-161.5 -38.5q-47 0 -77 10v105q33 -16 79 -16q60 0 82.5 13.5t22.5 45.5q0 23 -17 39t-42 26.5t-49.5 23t-41.5 37t-17 60.5q0 27 12.5 48t30.5 35t36 26.5t30.5 28t12.5 32.5q0 59 -84 59q-59 0 -82.5 -26.5t-23.5 -90.5v-445h-105v441
q0 118 53 168t161 50q187 0 187 -159q0 -32 -13 -56.5t-31 -39t-36 -26t-31 -23t-13 -23.5q0 -15 26.5 -30t58 -28t58 -45t26.5 -77z" />
    <glyph glyph-name="agrave" unicode="&#xe0;" horiz-adv-x="490" 
d="M446 343v-194q0 -83 -51 -121.5t-162 -38.5q-203 0 -203 154q0 80 52.5 115.5t151.5 35.5h110v49q0 44 -29.5 60t-88.5 16q-91 0 -142 -19v90q51 17 136 17q109 0 167.5 -37.5t58.5 -126.5zM344 154v62h-110q-52 0 -76.5 -16.5t-24.5 -54.5q0 -40 26.5 -54.5t71.5 -14.5
q56 0 84.5 15.5t28.5 62.5zM228 559l-86 136h107l66 -136h-87z" />
    <glyph glyph-name="aacute" unicode="&#xe1;" horiz-adv-x="490" 
d="M446 343v-194q0 -83 -51 -121.5t-162 -38.5q-203 0 -203 154q0 80 52.5 115.5t151.5 35.5h110v49q0 44 -29.5 60t-88.5 16q-91 0 -142 -19v90q51 17 136 17q109 0 167.5 -37.5t58.5 -126.5zM344 154v62h-110q-52 0 -76.5 -16.5t-24.5 -54.5q0 -40 26.5 -54.5t71.5 -14.5
q56 0 84.5 15.5t28.5 62.5zM368 695l-86 -136h-87l66 136h107z" />
    <glyph glyph-name="acircumflex" unicode="&#xe2;" horiz-adv-x="490" 
d="M446 343v-194q0 -83 -51 -121.5t-162 -38.5q-203 0 -203 154q0 80 52.5 115.5t151.5 35.5h110v49q0 44 -29.5 60t-88.5 16q-91 0 -142 -19v90q51 17 136 17q109 0 167.5 -37.5t58.5 -126.5zM344 154v62h-110q-52 0 -76.5 -16.5t-24.5 -54.5q0 -40 26.5 -54.5t71.5 -14.5
q56 0 84.5 15.5t28.5 62.5zM109 561l57 89q17 26 33 35t44 9t44 -9t33 -35l58 -89h-81l-33 54q-10 17 -21 17q-10 0 -21 -17l-33 -54h-80z" />
    <glyph glyph-name="atilde" unicode="&#xe3;" horiz-adv-x="490" 
d="M446 343v-194q0 -83 -51 -121.5t-162 -38.5q-203 0 -203 154q0 80 52.5 115.5t151.5 35.5h110v49q0 44 -29.5 60t-88.5 16q-91 0 -142 -19v90q51 17 136 17q109 0 167.5 -37.5t58.5 -126.5zM344 154v62h-110q-52 0 -76.5 -16.5t-24.5 -54.5q0 -40 26.5 -54.5t71.5 -14.5
q56 0 84.5 15.5t28.5 62.5zM76 568q0 123 101 123q36 0 79.5 -29t57.5 -29q33 0 33 53h64q0 -123 -100 -123q-37 0 -80.5 29t-57.5 29q-33 0 -33 -53h-64z" />
    <glyph glyph-name="adieresis" unicode="&#xe4;" horiz-adv-x="490" 
d="M446 343v-194q0 -83 -51 -121.5t-162 -38.5q-203 0 -203 154q0 80 52.5 115.5t151.5 35.5h110v49q0 44 -29.5 60t-88.5 16q-91 0 -142 -19v90q51 17 136 17q109 0 167.5 -37.5t58.5 -126.5zM344 154v62h-110q-52 0 -76.5 -16.5t-24.5 -54.5q0 -40 26.5 -54.5t71.5 -14.5
q56 0 84.5 15.5t28.5 62.5zM104 627q0 23 16.5 40t39.5 17q24 0 40.5 -17t16.5 -40t-16.5 -39.5t-40.5 -16.5q-23 0 -39.5 16.5t-16.5 39.5zM282 627q0 23 17 40t40 17t39.5 -17t16.5 -40t-16.5 -39.5t-39.5 -16.5t-40 16.5t-17 39.5z" />
    <glyph glyph-name="aring" unicode="&#xe5;" horiz-adv-x="490" 
d="M446 343v-194q0 -83 -51 -121.5t-162 -38.5q-203 0 -203 154q0 80 52.5 115.5t151.5 35.5h110v49q0 44 -29.5 60t-88.5 16q-91 0 -142 -19v90q51 17 136 17q109 0 167.5 -37.5t58.5 -126.5zM344 154v62h-110q-52 0 -76.5 -16.5t-24.5 -54.5q0 -40 26.5 -54.5t71.5 -14.5
q56 0 84.5 15.5t28.5 62.5zM241 537q-38 0 -64 24.5t-26 65.5q0 42 26 66.5t64 24.5q39 0 65.5 -24t26.5 -67q0 -41 -26.5 -65.5t-65.5 -24.5zM241 587q19 0 30.5 11.5t11.5 28.5q0 18 -11.5 30t-30.5 12q-18 0 -29.5 -12t-11.5 -30q0 -17 11.5 -28.5t29.5 -11.5z" />
    <glyph glyph-name="ae" unicode="&#xe6;" horiz-adv-x="809" 
d="M774 300q0 -55 -10 -90h-321v-22q0 -55 33.5 -78.5t109.5 -23.5q103 0 172 29v-97q-72 -29 -172 -29q-70 0 -120.5 20t-62.5 59h-4q-6 -40 -51 -59.5t-115 -19.5q-203 0 -203 154q0 80 52.5 115.5t151.5 35.5h110v49q0 44 -29.5 60t-88.5 16q-91 0 -142 -19v90
q51 17 136 17q69 0 117.5 -19.5t59.5 -60.5h4q10 36 54.5 58t106.5 22q104 0 158 -52.5t54 -154.5zM344 154v62h-110q-52 0 -76.5 -16.5t-24.5 -54.5q0 -40 26.5 -54.5t71.5 -14.5q56 0 84.5 15.5t28.5 62.5zM443 319v-25h234v25q0 99 -118 99q-116 0 -116 -99z" />
    <glyph glyph-name="ccedilla" unicode="&#xe7;" horiz-adv-x="429" 
d="M44 199v98q0 98 58 154t173 56q63 0 118 -24v-97q-60 25 -116 25q-72 0 -101 -26.5t-29 -88.5v-94q0 -65 31.5 -90.5t105.5 -25.5q60 0 118 22v-96q-62 -22 -118 -23l-6 -28q44 2 64.5 -13.5t20.5 -55.5q0 -47 -25.5 -68t-80.5 -21q-26 0 -59 10v54q26 -7 47 -7
q24 0 33 7t9 24t-9 24t-32 7q-17 0 -37 -4l19 74q-184 19 -184 207z" />
    <glyph glyph-name="egrave" unicode="&#xe8;" horiz-adv-x="513" 
d="M478 300q0 -55 -10 -90h-321v-22q0 -55 33.5 -78.5t109.5 -23.5q104 0 171 29v-97q-70 -29 -171 -29q-126 0 -186 50.5t-60 163.5v87q0 217 222 217q104 0 158 -52.5t54 -154.5zM147 319v-25h234v25q0 99 -118 99q-116 0 -116 -99zM227 559l-86 136h107l66 -136h-87z" />
    <glyph glyph-name="eacute" unicode="&#xe9;" horiz-adv-x="513" 
d="M478 300q0 -55 -10 -90h-321v-22q0 -55 33.5 -78.5t109.5 -23.5q104 0 171 29v-97q-70 -29 -171 -29q-126 0 -186 50.5t-60 163.5v87q0 217 222 217q104 0 158 -52.5t54 -154.5zM147 319v-25h234v25q0 99 -118 99q-116 0 -116 -99zM369 695l-86 -136h-87l66 136h107z" />
    <glyph glyph-name="ecircumflex" unicode="&#xea;" horiz-adv-x="513" 
d="M478 300q0 -55 -10 -90h-321v-22q0 -55 33.5 -78.5t109.5 -23.5q104 0 171 29v-97q-70 -29 -171 -29q-126 0 -186 50.5t-60 163.5v87q0 217 222 217q104 0 158 -52.5t54 -154.5zM147 319v-25h234v25q0 99 -118 99q-116 0 -116 -99zM115 561l57 89q17 26 33 35t44 9t44 -9
t33 -35l58 -89h-81l-33 54q-10 17 -21 17q-10 0 -21 -17l-33 -54h-80z" />
    <glyph glyph-name="edieresis" unicode="&#xeb;" horiz-adv-x="513" 
d="M478 300q0 -55 -10 -90h-321v-22q0 -55 33.5 -78.5t109.5 -23.5q104 0 171 29v-97q-70 -29 -171 -29q-126 0 -186 50.5t-60 163.5v87q0 217 222 217q104 0 158 -52.5t54 -154.5zM147 319v-25h234v25q0 99 -118 99q-116 0 -116 -99zM105 627q0 23 16.5 40t39.5 17
q24 0 40.5 -17t16.5 -40t-16.5 -39.5t-40.5 -16.5q-23 0 -39.5 16.5t-16.5 39.5zM283 627q0 23 17 40t40 17t39.5 -17t16.5 -40t-16.5 -39.5t-39.5 -16.5t-40 16.5t-17 39.5z" />
    <glyph glyph-name="igrave" unicode="&#xec;" horiz-adv-x="233" 
d="M65 0v496h103v-496h-103zM81 559l-86 136h107l66 -136h-87z" />
    <glyph glyph-name="iacute" unicode="&#xed;" horiz-adv-x="233" 
d="M65 0v496h103v-496h-103zM235 695l-86 -136h-87l66 136h107z" />
    <glyph glyph-name="icircumflex" unicode="&#xee;" horiz-adv-x="233" 
d="M65 0v496h103v-496h-103zM-18 561l57 89q17 26 33 35t44 9t44 -9t33 -35l58 -89h-81l-33 54q-10 17 -21 17q-10 0 -21 -17l-33 -54h-80z" />
    <glyph glyph-name="idieresis" unicode="&#xef;" horiz-adv-x="233" 
d="M65 0v496h103v-496h-103zM-29 627q0 23 16.5 40t39.5 17q24 0 40.5 -17t16.5 -40t-16.5 -39.5t-40.5 -16.5q-23 0 -39.5 16.5t-16.5 39.5zM149 627q0 23 17 40t40 17t39.5 -17t16.5 -40t-16.5 -39.5t-39.5 -16.5t-40 16.5t-17 39.5z" />
    <glyph glyph-name="eth" unicode="&#xf0;" horiz-adv-x="549" 
d="M160 515l87 86q-50 24 -139 32l27 91q105 -10 183 -51l67 66l48 -47l-58 -57q63 -52 92.5 -126t29.5 -190q0 -179 -51 -254.5t-196 -75.5q-208 0 -208 211q0 106 53.5 154.5t164.5 48.5q68 0 128 -21q-5 65 -24 108t-59 74l-97 -97zM262 311q-58 0 -86 -23.5t-28 -88.5
q0 -59 25 -85t79 -26q84 0 110 40t26 159q-54 24 -126 24z" />
    <glyph glyph-name="ntilde" unicode="&#xf1;" horiz-adv-x="543" 
d="M157 313v-313h-103v313q0 194 218 194q114 0 165.5 -48.5t51.5 -145.5v-313h-103v313q0 51 -23.5 74.5t-90.5 23.5t-91 -23.5t-24 -74.5zM105 568q0 123 101 123q36 0 79.5 -29t57.5 -29q33 0 33 53h64q0 -123 -100 -123q-37 0 -80.5 29t-57.5 29q-33 0 -33 -53h-64z" />
    <glyph glyph-name="ograve" unicode="&#xf2;" horiz-adv-x="546" 
d="M399 205v86q0 63 -26 91.5t-99 28.5t-100 -28.5t-27 -91.5v-86q0 -62 26.5 -90.5t100.5 -28.5q73 0 99 28t26 91zM274 -11q-120 0 -175 54t-55 162v86q0 105 57 160.5t173 55.5q119 0 173.5 -54t54.5 -162v-86q0 -104 -56.5 -160t-171.5 -56zM235 559l-86 136h107
l66 -136h-87z" />
    <glyph glyph-name="oacute" unicode="&#xf3;" horiz-adv-x="546" 
d="M399 205v86q0 63 -26 91.5t-99 28.5t-100 -28.5t-27 -91.5v-86q0 -62 26.5 -90.5t100.5 -28.5q73 0 99 28t26 91zM274 -11q-120 0 -175 54t-55 162v86q0 105 57 160.5t173 55.5q119 0 173.5 -54t54.5 -162v-86q0 -104 -56.5 -160t-171.5 -56zM400 695l-86 -136h-87
l66 136h107z" />
    <glyph glyph-name="ocircumflex" unicode="&#xf4;" horiz-adv-x="546" 
d="M399 205v86q0 63 -26 91.5t-99 28.5t-100 -28.5t-27 -91.5v-86q0 -62 26.5 -90.5t100.5 -28.5q73 0 99 28t26 91zM274 -11q-120 0 -175 54t-55 162v86q0 105 57 160.5t173 55.5q119 0 173.5 -54t54.5 -162v-86q0 -104 -56.5 -160t-171.5 -56zM139 561l57 89q17 26 33 35
t44 9t44 -9t33 -35l58 -89h-81l-33 54q-10 17 -21 17q-10 0 -21 -17l-33 -54h-80z" />
    <glyph glyph-name="otilde" unicode="&#xf5;" horiz-adv-x="546" 
d="M399 205v86q0 63 -26 91.5t-99 28.5t-100 -28.5t-27 -91.5v-86q0 -62 26.5 -90.5t100.5 -28.5q73 0 99 28t26 91zM274 -11q-120 0 -175 54t-55 162v86q0 105 57 160.5t173 55.5q119 0 173.5 -54t54.5 -162v-86q0 -104 -56.5 -160t-171.5 -56zM107 568q0 123 101 123
q36 0 79.5 -29t57.5 -29q33 0 33 53h64q0 -123 -100 -123q-37 0 -80.5 29t-57.5 29q-33 0 -33 -53h-64z" />
    <glyph glyph-name="odieresis" unicode="&#xf6;" horiz-adv-x="546" 
d="M399 205v86q0 63 -26 91.5t-99 28.5t-100 -28.5t-27 -91.5v-86q0 -62 26.5 -90.5t100.5 -28.5q73 0 99 28t26 91zM274 -11q-120 0 -175 54t-55 162v86q0 105 57 160.5t173 55.5q119 0 173.5 -54t54.5 -162v-86q0 -104 -56.5 -160t-171.5 -56zM129 627q0 23 16.5 40
t39.5 17q24 0 40.5 -17t16.5 -40t-16.5 -39.5t-40.5 -16.5q-23 0 -39.5 16.5t-16.5 39.5zM307 627q0 23 17 40t40 17t39.5 -17t16.5 -40t-16.5 -39.5t-39.5 -16.5t-40 16.5t-17 39.5z" />
    <glyph glyph-name="divide" unicode="&#xf7;" horiz-adv-x="560" 
d="M215 140q0 27 19 46.5t46 19.5t46 -19.5t19 -46.5q0 -26 -19 -45.5t-46 -19.5t-46 19t-19 46zM215 510q0 27 19 46t46 19t46 -19.5t19 -45.5q0 -27 -19 -46.5t-46 -19.5t-46 19.5t-19 46.5zM509 368v-86h-458v86h458z" />
    <glyph glyph-name="oslash" unicode="&#xf8;" horiz-adv-x="546" 
d="M274 -11q-59 0 -101 14l-26 -45l-62 35l24 42q-65 52 -65 170v86q0 105 57 160.5t173 55.5q56 0 100 -14l27 46l61 -35l-25 -42q65 -53 65 -171v-86q0 -104 -56.5 -160t-171.5 -56zM399 205v86q0 59 -21 85l-163 -283q21 -7 59 -7q73 0 99 28t26 91zM147 205
q0 -58 21 -83l163 282q-26 7 -57 7q-73 0 -100 -28.5t-27 -91.5v-86z" />
    <glyph glyph-name="ugrave" unicode="&#xf9;" horiz-adv-x="537" 
d="M154 496v-312q0 -51 24 -74.5t91 -23.5t90.5 23.5t23.5 74.5v312h103v-312q0 -97 -51.5 -146t-165.5 -49q-218 0 -218 195v312h103zM226 559l-86 136h107l66 -136h-87z" />
    <glyph glyph-name="uacute" unicode="&#xfa;" horiz-adv-x="537" 
d="M154 496v-312q0 -51 24 -74.5t91 -23.5t90.5 23.5t23.5 74.5v312h103v-312q0 -97 -51.5 -146t-165.5 -49q-218 0 -218 195v312h103zM395 695l-86 -136h-87l66 136h107z" />
    <glyph glyph-name="ucircumflex" unicode="&#xfb;" horiz-adv-x="537" 
d="M154 496v-312q0 -51 24 -74.5t91 -23.5t90.5 23.5t23.5 74.5v312h103v-312q0 -97 -51.5 -146t-165.5 -49q-218 0 -218 195v312h103zM135 561l57 89q17 26 33 35t44 9t44 -9t33 -35l58 -89h-81l-33 54q-10 17 -21 17q-10 0 -21 -17l-33 -54h-80z" />
    <glyph glyph-name="udieresis" unicode="&#xfc;" horiz-adv-x="537" 
d="M154 496v-312q0 -51 24 -74.5t91 -23.5t90.5 23.5t23.5 74.5v312h103v-312q0 -97 -51.5 -146t-165.5 -49q-218 0 -218 195v312h103zM124 627q0 23 16.5 40t39.5 17q24 0 40.5 -17t16.5 -40t-16.5 -39.5t-40.5 -16.5q-23 0 -39.5 16.5t-16.5 39.5zM302 627q0 23 17 40
t40 17t39.5 -17t16.5 -40t-16.5 -39.5t-39.5 -16.5t-40 16.5t-17 39.5z" />
    <glyph glyph-name="yacute" unicode="&#xfd;" horiz-adv-x="534" 
d="M393 695l-86 -136h-87l66 136h107zM129 496l90 -367q7 -30 18.5 -39.5t35.5 -9.5q18 0 29 10t18 39l85 367h105l-119 -496q-26 -111 -86.5 -167t-163.5 -54l-21 89q72 -1 110 33t56 98q-15 -7 -46 -7q-56 0 -80 31t-41 97l-95 376h105z" />
    <glyph glyph-name="thorn" unicode="&#xfe;" horiz-adv-x="558" 
d="M514 289v-82q0 -218 -208 -218q-106 0 -147 65v-254h-102v891h102v-249q42 65 147 65q208 0 208 -218zM411 205v86q0 63 -26 91.5t-99 28.5t-100 -28.5t-27 -88.5v-89q0 -62 26.5 -90.5t100.5 -28.5q73 0 99 28t26 91z" />
    <glyph glyph-name="ydieresis" unicode="&#xff;" horiz-adv-x="534" 
d="M129 496l90 -367q7 -30 18.5 -39.5t35.5 -9.5q18 0 29 10t18 39l85 367h105l-119 -496q-26 -111 -86.5 -167t-163.5 -54l-21 89q72 -1 110 33t56 98q-15 -7 -46 -7q-56 0 -80 31t-41 97l-95 376h105zM122 627q0 23 16.5 40t39.5 17q24 0 40.5 -17t16.5 -40t-16.5 -39.5
t-40.5 -16.5q-23 0 -39.5 16.5t-16.5 39.5zM300 627q0 23 17 40t40 17t39.5 -17t16.5 -40t-16.5 -39.5t-39.5 -16.5t-40 16.5t-17 39.5z" />
    <glyph glyph-name="Aogonek" unicode="&#x104;" horiz-adv-x="633" 
d="M477 491l135 -491q-54 -37 -69 -54t-15 -42q0 -20 8 -27.5t27 -7.5q24 0 43 7v-66q-33 -9 -63 -9q-50 0 -73.5 20t-23.5 69q0 41 23 64.5t70 45.5h-33l-49 180h-281l-49 -180h-106l135 491q27 97 57.5 132.5t103.5 35.5t103 -35.5t57 -132.5zM260 493l-59 -218h231
l-59 218q-12 44 -22 58t-34 14t-34.5 -14t-22.5 -58z" />
    <glyph glyph-name="aogonek" unicode="&#x105;" horiz-adv-x="490" 
d="M446 343v-194q0 -111 -95 -144q-31 -12 -63 -41.5t-32 -59.5q0 -19 8 -27t27 -8q24 0 43 7v-66q-33 -9 -62 -9q-51 0 -74.5 20t-23.5 69q0 37 18 58.5t54 40.5h-13q-203 0 -203 154q0 80 52.5 115.5t151.5 35.5h110v49q0 44 -29.5 60t-88.5 16q-91 0 -142 -19v90
q51 17 136 17q109 0 167.5 -37.5t58.5 -126.5zM344 154v62h-110q-52 0 -76.5 -16.5t-24.5 -54.5q0 -40 26.5 -54.5t71.5 -14.5q56 0 84.5 15.5t28.5 62.5z" />
    <glyph glyph-name="Cacute" unicode="&#x106;" horiz-adv-x="529" 
d="M161 399v-160q0 -73 36 -112t127 -39q105 0 169 40v-99q-70 -40 -171 -40q-135 0 -202 60t-67 190v160q0 260 269 260q57 0 92 -10t76 -31v-99q-76 42 -170 42q-84 0 -121.5 -39.5t-37.5 -122.5zM423 838l-86 -136h-87l66 136h107z" />
    <glyph glyph-name="cacute" unicode="&#x107;" horiz-adv-x="429" 
d="M44 199v98q0 98 58 154t173 56q63 0 118 -24v-97q-60 25 -116 25q-72 0 -101 -26.5t-29 -88.5v-94q0 -65 31.5 -90.5t105.5 -25.5q60 0 118 22v-96q-62 -23 -123 -23q-120 0 -177.5 52.5t-57.5 157.5zM366 695l-86 -136h-87l66 136h107z" />
    <glyph glyph-name="Eogonek" unicode="&#x118;" horiz-adv-x="562" 
d="M444 0h-257q-60 0 -87 27t-27 87v422q0 60 27 87t87 27h328v-99h-298q-39 0 -39 -38v-128h297v-99h-297v-149q0 -38 39 -38h298v-99q-54 -36 -69 -53.5t-15 -42.5q0 -21 8.5 -28t27.5 -7q23 0 42 7v-66q-33 -9 -62 -9q-51 0 -74.5 20t-23.5 69q0 42 23 64.5t72 45.5z" />
    <glyph glyph-name="eogonek" unicode="&#x119;" horiz-adv-x="513" 
d="M478 300q0 -55 -10 -90h-321v-22q0 -55 33.5 -78.5t109.5 -23.5q104 0 171 29v-97q-55 -38 -78.5 -63.5t-23.5 -50.5q0 -20 8.5 -27.5t27.5 -7.5q25 0 42 7v-66q-33 -9 -62 -9q-51 0 -74.5 20t-23.5 69q0 39 20 61t60 42q-46 -4 -67 -4q-126 0 -186 50.5t-60 163.5v87
q0 217 222 217q104 0 158 -52.5t54 -154.5zM147 319v-25h234v25q0 99 -118 99q-116 0 -116 -99z" />
    <glyph glyph-name="dotlessi" unicode="&#x131;" horiz-adv-x="233" 
d="M65 0v496h103v-496h-103z" />
    <glyph glyph-name="Lslash" unicode="&#x141;" horiz-adv-x="513" 
d="M35 293l-27 71l79 28v258h105v-220l77 28l26 -71l-103 -37v-213q0 -38 39 -38h259v-99h-289q-60 0 -87 27t-27 87v198z" />
    <glyph glyph-name="lslash" unicode="&#x142;" horiz-adv-x="289" 
d="M34 300l-27 70l77 28v302h102v-265l64 23l26 -70l-90 -33v-195q0 -40 11.5 -55.5t35.5 -15.5q25 0 38 6v-94q-21 -9 -55 -9q-60 0 -96 36t-36 112v178z" />
    <glyph glyph-name="Nacute" unicode="&#x143;" horiz-adv-x="661" 
d="M73 0v528q0 72 28 102t90 30q53 0 79 -23t43 -83l126 -447q5 -17 10.5 -22.5t15.5 -5.5q20 0 20 33v538h102v-528q0 -73 -27 -102.5t-87 -29.5q-55 0 -82 24.5t-45 86.5l-124 437q-5 20 -10.5 26.5t-16.5 6.5q-20 0 -20 -35v-536h-102zM457 838l-86 -136h-87l66 136h107z
" />
    <glyph glyph-name="nacute" unicode="&#x144;" horiz-adv-x="543" 
d="M157 313v-313h-103v313q0 194 218 194q114 0 165.5 -48.5t51.5 -145.5v-313h-103v313q0 51 -23.5 74.5t-90.5 23.5t-91 -23.5t-24 -74.5zM368 695l-86 -136h-87l66 136h107z" />
    <glyph glyph-name="OE" unicode="&#x152;" horiz-adv-x="964" 
d="M318 -12q-149 0 -207 67.5t-58 196.5v143q0 129 58.5 196.5t206.5 67.5q133 0 185 -69q19 60 103 60h312v-99h-299q-20 0 -29 -9t-9 -29v-128h297v-99h-297v-149q0 -20 9 -29t29 -9h299v-99h-312q-82 0 -101 58q-51 -70 -187 -70zM477 252v143q0 88 -32 126.5t-127 38.5
t-127 -38.5t-32 -126.5v-143q0 -87 32 -126t127 -39t127 39t32 126z" />
    <glyph glyph-name="oe" unicode="&#x153;" horiz-adv-x="865" 
d="M274 -11q-120 0 -175 54t-55 162v86q0 105 57 160.5t173 55.5q131 0 176 -84q42 84 168 84q104 0 157.5 -52.5t53.5 -154.5q0 -54 -9 -90h-322v-22q0 -54 34 -78t110 -24q104 0 171 29v-97q-72 -29 -171 -29q-149 0 -194 85q-47 -85 -174 -85zM399 205v86q0 63 -26 91.5
t-99 28.5t-100 -28.5t-27 -91.5v-86q0 -62 26.5 -90.5t100.5 -28.5q73 0 99 28t26 91zM498 319v-25h234v25q0 99 -117 99t-117 -99z" />
    <glyph glyph-name="Sacute" unicode="&#x15a;" horiz-adv-x="525" 
d="M43 27v100q95 -39 203 -39q68 0 98.5 15.5t30.5 54.5q0 30 -18 48.5t-68 48.5l-138 83q-100 60 -100 163q0 80 54 119t167 39q96 0 182 -36v-101q-76 38 -182 38q-60 0 -86.5 -14t-26.5 -48q0 -25 14 -41t49 -37l142 -87q60 -36 89.5 -74t29.5 -101q0 -85 -58 -127
t-181 -42q-112 0 -201 38zM369 838l-86 -136h-87l66 136h107z" />
    <glyph glyph-name="sacute" unicode="&#x15b;" horiz-adv-x="463" 
d="M40 18v97q97 -31 186 -31q51 0 72 9.5t21 33.5q0 19 -13 31t-51 29l-108 48q-51 22 -75 51.5t-24 84.5q0 70 45.5 103t145.5 33q84 0 158 -30v-96q-72 31 -160 31q-49 0 -68.5 -9.5t-19.5 -31.5q0 -18 10.5 -28.5t36.5 -22.5l116 -50q55 -23 81 -54t26 -87
q0 -72 -48 -106t-154 -34q-92 0 -177 29zM349 695l-86 -136h-87l66 136h107z" />
    <glyph glyph-name="Scaron" unicode="&#x160;" horiz-adv-x="525" 
d="M43 27v100q95 -39 203 -39q68 0 98.5 15.5t30.5 54.5q0 30 -18 48.5t-68 48.5l-138 83q-100 60 -100 163q0 80 54 119t167 39q96 0 182 -36v-101q-76 38 -182 38q-60 0 -86.5 -14t-26.5 -48q0 -25 14 -41t49 -37l142 -87q60 -36 89.5 -74t29.5 -101q0 -85 -58 -127
t-181 -42q-112 0 -201 38zM185 748l-57 89h80l33 -54q11 -17 21 -17q11 0 21 17l33 54h81l-58 -89q-17 -26 -33 -35t-44 -9t-44 9t-33 35z" />
    <glyph glyph-name="scaron" unicode="&#x161;" horiz-adv-x="463" 
d="M40 18v97q97 -31 186 -31q51 0 72 9.5t21 33.5q0 19 -13 31t-51 29l-108 48q-51 22 -75 51.5t-24 84.5q0 70 45.5 103t145.5 33q84 0 158 -30v-96q-72 31 -160 31q-49 0 -68.5 -9.5t-19.5 -31.5q0 -18 10.5 -28.5t36.5 -22.5l116 -50q55 -23 81 -54t26 -87
q0 -72 -48 -106t-154 -34q-92 0 -177 29zM154 604l-57 89h80l33 -54q11 -17 21 -17q11 0 21 17l33 54h81l-58 -89q-17 -26 -33 -35t-44 -9t-44 9t-33 35z" />
    <glyph glyph-name="Ydieresis" unicode="&#x178;" horiz-adv-x="632" 
d="M263 0v260q-30 10 -46.5 27t-43.5 68l-159 295h118l117 -231q24 -46 35.5 -58.5t31.5 -12.5t31 12.5t35 58.5l118 231h118l-160 -295q-28 -51 -44 -68t-45 -27v-260h-106zM171 770q0 23 16.5 40t39.5 17q24 0 40.5 -17t16.5 -40t-16.5 -39.5t-40.5 -16.5
q-23 0 -39.5 16.5t-16.5 39.5zM349 770q0 23 17 40t40 17t39.5 -17t16.5 -40t-16.5 -39.5t-39.5 -16.5t-40 16.5t-17 39.5z" />
    <glyph glyph-name="Zacute" unicode="&#x179;" horiz-adv-x="555" 
d="M55 551v99h332q74 0 106 -27.5t32 -83.5q0 -39 -15 -69t-56 -64l-295 -244q-30 -24 -30 -43q0 -20 37 -20h361v-99h-359q-80 0 -110 26.5t-30 77.5q0 41 14.5 71.5t56.5 64.5l298 246q25 20 25 39q0 26 -41 26h-326zM386 838l-86 -136h-87l66 136h107z" />
    <glyph glyph-name="zacute" unicode="&#x17a;" horiz-adv-x="482" 
d="M358 695l-86 -136h-87l66 136h107zM62 403v93h270q64 0 90 -23.5t26 -79.5q0 -39 -15 -65t-62 -55l-222 -135q-21 -13 -21 -27q0 -18 32 -18h288v-93h-299q-115 0 -115 102q0 73 76 120l220 135q24 16 24 29q0 17 -32 17h-260z" />
    <glyph glyph-name="Zdotaccent" unicode="&#x17b;" horiz-adv-x="555" 
d="M219 770q0 25 17 42t42 17t42 -17t17 -42t-17 -42t-42 -17t-42 17t-17 42zM55 551v99h332q74 0 106 -27.5t32 -83.5q0 -39 -15 -69t-56 -64l-295 -244q-30 -24 -30 -43q0 -20 37 -20h361v-99h-359q-80 0 -110 26.5t-30 77.5q0 41 14.5 71.5t56.5 64.5l298 246
q25 20 25 39q0 26 -41 26h-326z" />
    <glyph glyph-name="zdotaccent" unicode="&#x17c;" horiz-adv-x="482" 
d="M175 626q0 25 16.5 42t41.5 17t42 -17t17 -42q0 -24 -17 -41t-42 -17t-41.5 17t-16.5 41zM62 403v93h270q64 0 90 -23.5t26 -79.5q0 -39 -15 -65t-62 -55l-222 -135q-21 -13 -21 -27q0 -18 32 -18h288v-93h-299q-115 0 -115 102q0 73 76 120l220 135q24 16 24 29
q0 17 -32 17h-260z" />
    <glyph glyph-name="Zcaron" unicode="&#x17d;" horiz-adv-x="555" 
d="M55 551v99h332q74 0 106 -27.5t32 -83.5q0 -39 -15 -69t-56 -64l-295 -244q-30 -24 -30 -43q0 -20 37 -20h361v-99h-359q-80 0 -110 26.5t-30 77.5q0 41 14.5 71.5t56.5 64.5l298 246q25 20 25 39q0 26 -41 26h-326zM210 748l-57 89h80l33 -54q11 -17 21 -17q11 0 21 17
l33 54h81l-58 -89q-17 -26 -33 -35t-44 -9t-44 9t-33 35z" />
    <glyph glyph-name="zcaron" unicode="&#x17e;" horiz-adv-x="495" 
d="M68 403v93h270q61 0 88.5 -24t27.5 -79q0 -38 -16.5 -65.5t-60.5 -54.5l-221 -135q-22 -13 -22 -28q0 -17 32 -17h288v-93h-298q-59 0 -87 24.5t-28 77.5q0 75 75 120l221 135q23 15 23 30q0 16 -31 16h-261zM187 604l-57 89h80l33 -54q11 -17 21 -17q11 0 21 17l33 54
h81l-58 -89q-17 -26 -33 -35t-44 -9t-44 9t-33 35z" />
    <glyph glyph-name="florin" unicode="&#x192;" horiz-adv-x="499" 
d="M87 282v75h123l14 91q19 121 57.5 168t138.5 48q41 0 71 -10v-94q-21 7 -55 7q-52 0 -72 -21t-33 -101l-14 -88h148v-75h-160l-30 -194q-10 -67 -19 -107t-24.5 -77t-37.5 -54.5t-54.5 -28t-79.5 -10.5q-28 0 -51 8v95q21 -7 43 -7q59 0 79 33t38 154l29 188h-111z" />
    <glyph glyph-name="circumflex" unicode="&#x2c6;" horiz-adv-x="405" 
d="M68 750l57 89q17 26 33 35t44 9t44 -9t33 -35l58 -89h-81l-33 54q-10 17 -21 17q-10 0 -21 -17l-33 -54h-80z" />
    <glyph glyph-name="caron" unicode="&#x2c7;" horiz-adv-x="405" 
d="M125 794l-57 89h80l33 -54q11 -17 21 -17q11 0 21 17l33 54h81l-58 -89q-17 -26 -33 -35t-44 -9t-44 9t-33 35z" />
    <glyph glyph-name="breve" unicode="&#x2d8;" horiz-adv-x="390" 
d="M195 750q-135 0 -135 109v22h73v-22q0 -25 14.5 -35t47.5 -10t47.5 10.5t14.5 35.5v21h73v-22q0 -109 -135 -109z" />
    <glyph glyph-name="dotaccent" unicode="&#x2d9;" horiz-adv-x="202" 
d="M43 808q0 25 16.5 42t41.5 17t42 -17t17 -42q0 -24 -17 -41t-42 -17t-41.5 17t-16.5 41z" />
    <glyph glyph-name="ring" unicode="&#x2da;" horiz-adv-x="282" 
d="M140 750q-38 0 -64 24.5t-26 65.5q0 42 26 66.5t64 24.5q39 0 65.5 -24t26.5 -67q0 -41 -26.5 -65.5t-65.5 -24.5zM140 800q19 0 30.5 11.5t11.5 28.5q0 18 -11.5 30t-30.5 12q-18 0 -29.5 -12t-11.5 -30q0 -17 11.5 -28.5t29.5 -11.5z" />
    <glyph glyph-name="ogonek" unicode="&#x2db;" horiz-adv-x="259" 
d="M142 0h71q-54 -37 -69 -54t-15 -42q0 -20 8 -27.5t27 -7.5q24 0 43 7v-66q-33 -9 -62 -9q-51 0 -74.5 20t-23.5 69q0 42 23 64.5t72 45.5z" />
    <glyph glyph-name="tilde" unicode="&#x2dc;" horiz-adv-x="489" 
d="M77 761q0 123 101 123q36 0 79.5 -29t57.5 -29q33 0 33 53h64q0 -123 -100 -123q-37 0 -80.5 29t-57.5 29q-33 0 -33 -53h-64z" />
    <glyph glyph-name="hungarumlaut" unicode="&#x2dd;" horiz-adv-x="427" 
d="M227 886l-86 -136h-87l66 136h107zM373 886l-86 -136h-87l66 136h107z" />
    <glyph glyph-name="endash" unicode="&#x2013;" horiz-adv-x="461" 
d="M-5 277v87h471v-87h-471z" />
    <glyph glyph-name="emdash" unicode="&#x2014;" horiz-adv-x="932" 
d="M-5 277v87h941v-87h-941z" />
    <glyph glyph-name="quoteleft" unicode="&#x2018;" horiz-adv-x="214" 
d="M144 741l29 -7q0 -58 -3 -98q-10 -153 -70 -153q-21 0 -33 14.5t-12 38.5q0 31 31 97.5t58 107.5z" />
    <glyph glyph-name="quoteright" unicode="&#x2019;" horiz-adv-x="214" 
d="M70 483l-29 7q0 58 3 98q10 153 70 153q21 0 33 -14.5t12 -38.5q0 -31 -31 -97.5t-58 -107.5z" />
    <glyph glyph-name="quotesinglbase" unicode="&#x201a;" horiz-adv-x="214" 
d="M70 -143l-29 7q0 58 3 98q10 153 70 153q21 0 33 -14.5t12 -38.5q0 -31 -31 -97.5t-58 -107.5z" />
    <glyph glyph-name="quotedblleft" unicode="&#x201c;" horiz-adv-x="397" 
d="M144 741l29 -7q0 -58 -3 -98q-10 -153 -70 -153q-21 0 -33 14.5t-12 38.5q0 31 31 97.5t58 107.5zM327 741l29 -7q0 -58 -3 -98q-10 -153 -70 -153q-21 0 -33 14.5t-12 38.5q0 31 31 97.5t58 107.5z" />
    <glyph glyph-name="quotedblright" unicode="&#x201d;" horiz-adv-x="397" 
d="M253 483l-29 7q0 58 3 98q10 153 70 153q21 0 33 -14.5t12 -38.5q0 -31 -31 -97.5t-58 -107.5zM70 483l-29 7q0 58 3 98q10 153 70 153q21 0 33 -14.5t12 -38.5q0 -31 -31 -97.5t-58 -107.5z" />
    <glyph glyph-name="quotedblbase" unicode="&#x201e;" horiz-adv-x="394" 
d="M70 -143l-29 7q0 58 3 98q10 153 70 153q21 0 33 -14.5t12 -38.5q0 -31 -31 -97.5t-58 -107.5zM250 -143l-29 7q0 58 3 98q10 153 70 153q21 0 33 -14.5t12 -38.5q0 -31 -31 -97.5t-58 -107.5z" />
    <glyph glyph-name="dagger" unicode="&#x2020;" horiz-adv-x="480" 
d="M439 501v-72h-159v-506h-80v506h-159v72h159v140h80v-140h159z" />
    <glyph glyph-name="daggerdbl" unicode="&#x2021;" horiz-adv-x="489" 
d="M45 63v72h159v294h-159v72h159v140h80v-140h159v-72h-159v-294h159v-72h-159v-140h-80v140h-159z" />
    <glyph glyph-name="bullet" unicode="&#x2022;" horiz-adv-x="302" 
d="M263 313q0 -45 -31.5 -78.5t-80.5 -33.5q-50 0 -81.5 33.5t-31.5 78.5t31.5 79t81.5 34q49 0 80.5 -34t31.5 -79z" />
    <glyph glyph-name="ellipsis" unicode="&#x2026;" horiz-adv-x="719" 
d="M543 55q0 27 19 46t46 19q28 0 47 -19t19 -46t-19 -46t-47 -19q-27 0 -46 19t-19 46zM294 55q0 27 19 46t47 19q27 0 46 -19t19 -46t-19 -46t-46 -19q-28 0 -47 19t-19 46zM46 55q0 27 19 46t46 19t46 -19t19 -46t-19 -46t-46 -19t-46 19t-19 46z" />
    <glyph glyph-name="perthousand" unicode="&#x2030;" horiz-adv-x="1187" 
d="M1145 155q0 -165 -158 -165q-159 0 -159 165q0 166 159 166q158 0 158 -166zM1057 155q0 46 -16 65.5t-54 19.5q-39 0 -55 -19.5t-16 -65.5t16 -65.5t55 -19.5q38 0 54 19.5t16 65.5zM530 650h107l-339 -650h-105zM358 495q0 -166 -158 -166t-158 166q0 165 158 165
t158 -165zM270 495q0 46 -16 65.5t-54 19.5t-54 -19.5t-16 -65.5t15.5 -65.5t54.5 -19.5t54.5 19.5t15.5 65.5zM786 155q0 -165 -159 -165q-158 0 -158 165q0 166 158 166q159 0 159 -166zM698 155q0 46 -16 65.5t-55 19.5t-54.5 -19.5t-15.5 -65.5t15.5 -65.5t54.5 -19.5
t55 19.5t16 65.5z" />
    <glyph glyph-name="guilsinglleft" unicode="&#x2039;" horiz-adv-x="317" 
d="M273 44h-96l-119 144q-29 34 -29 62t29 62l119 144h96l-147 -179q-14 -15 -14 -27q0 -10 14 -27z" />
    <glyph glyph-name="guilsinglright" unicode="&#x203a;" horiz-adv-x="317" 
d="M140 44h-96l147 179q14 17 14 27t-14 27l-147 179h96l119 -144q29 -34 29 -62q0 -26 -29 -62z" />
    <glyph glyph-name="fraction" unicode="&#x2044;" horiz-adv-x="344" 
d="M263 677h85l-269 -704h-84z" />
    <glyph glyph-name="Euro" unicode="&#x20ac;" horiz-adv-x="571" 
d="M18 360v72h83q18 227 259 227q88 0 161 -32l-19 -91q-72 25 -142 25t-106.5 -30t-43.5 -99h268l-16 -72h-254v-71h237l-15 -72h-221q5 -66 40.5 -97.5t114.5 -31.5q98 0 159 33v-99q-66 -33 -160 -33q-124 0 -190.5 52t-72.5 176h-82v72h81v71h-81z" />
    <glyph glyph-name="trademark" unicode="&#x2122;" horiz-adv-x="892" 
d="M841 588v-340h-81v324l-78 -280q-5 -20 -16 -29t-33 -9q-38 0 -49 38l-81 280v-324h-81v340q0 28 12 40.5t40 12.5h32q53 0 69 -65l59 -224l63 237q6 31 23.5 41.5t53.5 10.5h15q52 0 52 -53zM354 641v-73h-122v-320h-81v320h-122v73h325z" />
    <glyph glyph-name="minus" unicode="&#x2212;" horiz-adv-x="560" 
d="M509 364v-87h-458v87h458z" />
    <glyph glyph-name="fi" unicode="&#xfb01;" horiz-adv-x="625" 
d="M14 400v80l87 16v58q0 95 47.5 134t132.5 39q49 0 92 -15v-96q-40 14 -85 14q-85 0 -85 -68v-66h175v-96h-175v-400h-102v400h-87zM457 0v496h103v-496h-103zM445 649q0 26 19 44.5t45 18.5t44.5 -18.5t18.5 -44.5t-18.5 -44.5t-44.5 -18.5t-45 18.5t-19 44.5z" />
    <glyph glyph-name="fl" unicode="&#xfb02;" horiz-adv-x="646" 
d="M14 400v80l87 16v58q0 95 47.5 134t132.5 39q49 0 92 -15v-96q-40 14 -85 14q-85 0 -85 -68v-66h175v-96h-175v-400h-102v400h-87zM447 140v560h103v-540q0 -40 11.5 -55.5t34.5 -15.5q26 0 39 6v-94q-21 -9 -56 -9q-59 0 -95.5 36t-36.5 112z" />
    </font>
</defs>
</svg>
