<?xml version="1.0" standalone="no"?>
<!DOCTYPE svg PUBLIC "-//W3C//DTD SVG 1.1//EN" "http://www.w3.org/Graphics/SVG/1.1/DTD/svg11.dtd" >
<svg>
<metadata>
Created by FontForge 20090622 at Tue Sep 13 14:14:13 2016
 By deploy user
Copyright (c) 2014 by Aakash Soneri. All rights reserved.
</metadata>
<defs>
<font id="Ample-Light" horiz-adv-x="528" >
  <font-face 
    font-family="Ample-Light"
    font-weight="300"
    font-stretch="normal"
    units-per-em="1000"
    panose-1="2 0 0 0 0 0 0 0 0 0"
    ascent="750"
    descent="-250"
    x-height="490"
    cap-height="650"
    bbox="-32 -234 1023 916"
    underline-thickness="50"
    underline-position="-50"
    unicode-range="U+0020-U+FB02"
  />
<missing-glyph horiz-adv-x="192" 
 />
    <glyph glyph-name=".notdef" horiz-adv-x="192" 
 />
    <glyph glyph-name=".null" horiz-adv-x="0" 
 />
    <glyph glyph-name="nonmarkingreturn" horiz-adv-x="333" 
 />
    <glyph glyph-name="space" unicode=" " horiz-adv-x="286" 
 />
    <glyph glyph-name="exclam" unicode="!" horiz-adv-x="244" 
d="M96 650h54v-242q0 -161 -10 -255h-34q-10 85 -10 255v242zM79 38q0 18 12.5 30.5t30.5 12.5t30.5 -12.5t12.5 -30.5q0 -19 -12.5 -31.5t-30.5 -12.5t-30.5 12.5t-12.5 31.5z" />
    <glyph glyph-name="quotedbl" unicode="&#x22;" horiz-adv-x="247" 
d="M161 514v209h43v-209h-43zM43 514v209h44v-209h-44z" />
    <glyph glyph-name="numbersign" unicode="#" horiz-adv-x="637" 
d="M324 0l40 162h-172l-40 -162h-50l40 162h-104v47h116l58 232h-129v47h140l41 162h50l-41 -162h172l41 162h50l-41 -162h104v-47h-115l-58 -232h128v-47h-140l-40 -162h-50zM262 441l-58 -232h171l58 232h-171z" />
    <glyph glyph-name="dollar" unicode="$" horiz-adv-x="488" 
d="M213 -84v80q-94 3 -165 35v56q74 -37 181 -37q78 0 116.5 22t38.5 72q0 41 -23 67.5t-72 58.5l-139 90q-97 63 -97 155q0 127 160 137v82h48v-81q78 -1 151 -34v-56q-67 37 -168 37q-72 0 -103 -21t-31 -66q0 -37 18 -60.5t57 -49.5l140 -92q57 -37 86 -73.5t29 -93.5
q0 -136 -179 -146v-82h-48z" />
    <glyph glyph-name="percent" unicode="%" horiz-adv-x="738" 
d="M510 650h57l-338 -650h-57zM340 498q0 -159 -144 -159t-144 159t144 159t144 -159zM291 498q0 60 -22.5 86.5t-72.5 26.5q-51 0 -73 -26.5t-22 -86.5q0 -61 22 -87.5t73 -26.5q50 0 72.5 26.5t22.5 87.5zM686 152q0 -159 -144 -159t-144 159t144 159t144 -159zM637 152
q0 61 -22 87.5t-73 26.5q-50 0 -72.5 -26.5t-22.5 -87.5q0 -60 22.5 -86.5t72.5 -26.5q51 0 73 26t22 87z" />
    <glyph glyph-name="ampersand" unicode="&#x26;" horiz-adv-x="598" 
d="M579 317h-80v-107q0 -219 -214 -219q-47 0 -84 8t-70 27t-51 56t-18 91q0 141 129 169q-108 24 -108 144q0 89 50 130.5t152 41.5q59 0 101 -11v-54q-41 13 -101 13q-78 0 -112.5 -30.5t-34.5 -89.5q0 -60 31 -90.5t112 -30.5h162v90h56v-90h80v-48zM119 175
q0 -42 13.5 -69.5t39 -40.5t51.5 -17.5t61 -4.5q33 0 57.5 5.5t49.5 21.5t38.5 51.5t13.5 89.5v106h-161q-79 0 -121 -31.5t-42 -110.5z" />
    <glyph glyph-name="quotesingle" unicode="'" horiz-adv-x="130" 
d="M43 514v209h44v-209h-44z" />
    <glyph glyph-name="parenleft" unicode="(" horiz-adv-x="316" 
d="M58 250q0 293 197 476l34 -31q-83 -74 -132.5 -187t-49.5 -258q0 -280 183 -444l-35 -32q-197 183 -197 476z" />
    <glyph glyph-name="parenright" unicode=")" horiz-adv-x="316" 
d="M257 250q0 -295 -197 -476l-34 32q182 164 182 444q0 146 -49.5 258.5t-132.5 186.5l34 31q197 -181 197 -476z" />
    <glyph glyph-name="asterisk" unicode="*" horiz-adv-x="450" 
d="M245 726l-1 -157l150 50l13 -40l-151 -48l94 -126l-34 -26l-92 129l-91 -128l-34 25l93 126l-149 47l13 41l149 -51l-2 158h42z" />
    <glyph glyph-name="plus" unicode="+" horiz-adv-x="553" 
d="M494 335v-45h-193v-193h-49v193h-194v45h194v194h49v-194h193z" />
    <glyph glyph-name="comma" unicode="," horiz-adv-x="182" 
d="M52 -137l-19 5q7 70 26 148q15 63 46 63q25 0 25 -30q0 -29 -27 -87.5t-51 -98.5z" />
    <glyph glyph-name="hyphen" unicode="-" horiz-adv-x="358" 
d="M334 335v-45h-310v45h310z" />
    <glyph glyph-name="period" unicode="." horiz-adv-x="190" 
d="M52 37q0 19 12.5 31.5t30.5 12.5t30.5 -12.5t12.5 -31.5q0 -18 -12.5 -30.5t-30.5 -12.5t-30.5 12.5t-12.5 30.5z" />
    <glyph glyph-name="slash" unicode="/" horiz-adv-x="277" 
d="M234 726h51l-243 -756h-50z" />
    <glyph glyph-name="zero" unicode="0" horiz-adv-x="546" 
d="M438 230v187q0 102 -39 145.5t-126 43.5q-86 0 -125.5 -43.5t-39.5 -145.5v-187q0 -102 39 -144.5t126 -42.5t126 42.5t39 144.5zM273 -9q-117 0 -169.5 57.5t-52.5 181.5v187q0 126 52 183.5t170 57.5q119 0 170.5 -57.5t51.5 -183.5v-187q0 -125 -51.5 -182t-170.5 -57
z" />
    <glyph glyph-name="one" unicode="1" horiz-adv-x="317" 
d="M37 476l-37 36l78 98q39 48 89 48q41 0 60.5 -24t19.5 -83v-551h-56v530q0 34 -1 47t-7.5 21t-21.5 8q-23 0 -48 -33z" />
    <glyph glyph-name="two" unicode="2" horiz-adv-x="483" 
d="M432 497q0 -94 -103 -178l-192 -159q-44 -37 -44 -69q0 -21 12.5 -30t52.5 -9h274v-52h-276q-65 0 -91.5 22t-26.5 64q0 63 65 116l186 151q50 41 69 72t19 67q0 58 -35.5 86t-116.5 28q-105 0 -171 -37v57q72 32 172 32q206 0 206 -161z" />
    <glyph glyph-name="three" unicode="3" horiz-adv-x="474" 
d="M171 313v50h46q83 0 114 30.5t31 88.5q0 62 -32.5 93t-118.5 31q-85 0 -167 -29v58q82 23 167 23q111 0 159 -44.5t48 -130.5q0 -58 -23.5 -92.5t-71.5 -53.5q49 -12 77 -52.5t28 -104.5q0 -189 -217 -189q-96 0 -178 25v56q76 -29 178 -29q90 0 125.5 33.5t35.5 103.5
q0 133 -155 133h-46z" />
    <glyph glyph-name="four" unicode="4" horiz-adv-x="476" 
d="M53 304l115 346h58l-123 -372q-13 -41 0.5 -59t57.5 -18h205v289h56v-490h-56v149h-199q-85 0 -113 37t-1 118z" />
    <glyph glyph-name="five" unicode="5" horiz-adv-x="482" 
d="M55 421v125q0 55 24.5 79.5t79.5 24.5h251v-52h-245q-55 0 -55 -54v-121q0 -54 55 -54h51q116 0 171 -45t55 -141q0 -95 -53 -142.5t-167 -47.5q-95 0 -177 25v56q80 -29 179 -29q90 0 126.5 34t36.5 103q0 78 -41 106.5t-136 28.5h-51q-55 0 -79.5 24.5t-24.5 79.5z" />
    <glyph glyph-name="six" unicode="6" horiz-adv-x="509" 
d="M266 388q107 0 156.5 -46.5t49.5 -145.5q0 -103 -50.5 -153t-155.5 -50q-117 0 -166 62t-49 183v191q0 119 53.5 174t178.5 55q88 0 162 -32v-56q-67 36 -167 36q-98 0 -135 -41t-37 -134v-65q75 22 160 22zM262 338q-88 0 -156 -23v-74q0 -99 34 -147.5t130 -48.5
q79 0 112.5 35t33.5 113t-35.5 111.5t-118.5 33.5z" />
    <glyph glyph-name="seven" unicode="7" horiz-adv-x="477" 
d="M175 0h-62l231 477q22 45 22 79q0 22 -16 32t-54 10h-268v52h270q124 0 124 -92q0 -45 -54 -157z" />
    <glyph glyph-name="eight" unicode="8" horiz-adv-x="535" 
d="M267 658q109 0 155.5 -43.5t46.5 -129.5q0 -57 -19.5 -91t-69.5 -54q57 -20 82.5 -59t25.5 -103q0 -187 -222 -187q-219 0 -219 187q0 65 26.5 103.5t85.5 58.5q-52 21 -73 54.5t-21 90.5q0 84 47 128.5t155 44.5zM102 180q0 -70 37.5 -103.5t127.5 -33.5t127.5 33.5
t37.5 103.5q0 68 -39.5 101t-125.5 33t-125.5 -33t-39.5 -101zM120 483q0 -65 34.5 -93.5t112.5 -28.5t112.5 28.5t34.5 92.5q0 63 -30.5 93.5t-116.5 30.5q-85 0 -116 -29.5t-31 -93.5z" />
    <glyph glyph-name="nine" unicode="9" horiz-adv-x="509" 
d="M248 263q-111 0 -161 46t-50 146q0 103 51 153t155 50q118 0 167 -62t49 -183v-193q0 -119 -54 -174t-178 -55q-85 0 -164 32v56q70 -36 168 -36t135 41.5t37 134.5v67q-61 -23 -155 -23zM257 314q90 0 146 22v75q0 99 -34 147t-130 48q-79 0 -112.5 -35t-33.5 -112
q0 -81 36.5 -113t127.5 -32z" />
    <glyph glyph-name="colon" unicode=":" horiz-adv-x="190" 
d="M52 37q0 19 12.5 31.5t30.5 12.5t30.5 -12.5t12.5 -31.5q0 -18 -12.5 -30.5t-30.5 -12.5t-30.5 12.5t-12.5 30.5zM52 453q0 18 12.5 30.5t30.5 12.5t30.5 -12.5t12.5 -30.5t-12.5 -30.5t-30.5 -12.5t-30.5 12t-12.5 31z" />
    <glyph glyph-name="semicolon" unicode=";" horiz-adv-x="183" 
d="M48 453q0 18 12.5 30.5t31.5 12.5q18 0 30.5 -12.5t12.5 -30.5t-12.5 -30.5t-30.5 -12.5q-19 0 -31.5 12t-12.5 31zM55 -137l-19 5q7 70 26 148q15 63 46 63q25 0 25 -30q0 -29 -27 -87.5t-51 -98.5z" />
    <glyph glyph-name="less" unicode="&#x3c;" horiz-adv-x="430" 
d="M380 142v-53l-296 151q-36 18 -48.5 38t-12.5 47q0 54 61 85l296 152v-53l-287 -147q-24 -12 -24 -37q0 -26 24 -38z" />
    <glyph glyph-name="equal" unicode="=" horiz-adv-x="533" 
d="M474 233v-45h-416v45h416zM474 463v-45h-416v45h416z" />
    <glyph glyph-name="greater" unicode="&#x3e;" horiz-adv-x="430" 
d="M50 89v53l287 145q24 12 24 38q0 25 -24 37l-287 147v53l296 -152q61 -31 61 -85q0 -27 -12.5 -47t-48.5 -38z" />
    <glyph glyph-name="question" unicode="?" horiz-adv-x="393" 
d="M66 38q0 18 12.5 30.5t30.5 12.5q19 0 31.5 -12.5t12.5 -30.5q0 -19 -12.5 -31.5t-31.5 -12.5q-18 0 -30.5 12.5t-12.5 31.5zM347 478q0 -39 -9.5 -68t-31 -52t-37 -35t-47.5 -32q-44 -28 -65.5 -56.5t-22.5 -70.5h-47q-17 94 109 173q24 15 35.5 23.5t28.5 26t24 39.5
t7 52q0 72 -33.5 100t-105.5 28q-63 0 -113 -20v56q48 16 110 16q99 0 148.5 -42t49.5 -138z" />
    <glyph glyph-name="at" unicode="@" horiz-adv-x="915" 
d="M639 276v-69q0 -126 79 -126q55 0 74.5 37t19.5 99v59q0 89 -29 156.5t-79.5 106t-112 57t-133.5 18.5q-75 0 -136.5 -18.5t-110.5 -57.5t-76 -105.5t-27 -156.5v-70q0 -87 26.5 -152t74 -102.5t107 -55.5t132.5 -18q135 0 217 73l27 -36q-31 -31 -96.5 -56t-150.5 -25
q-171 0 -278 93.5t-107 278.5v70q0 98 31.5 173t86.5 120t125.5 67t154.5 22q82 0 152 -21.5t127 -66t89.5 -120t32.5 -174.5v-59q0 -179 -138 -179q-42 0 -74 24t-43 72q-35 -96 -156 -96q-171 0 -171 179v59q0 83 44 130.5t137 47.5q92 0 136.5 -47.5t44.5 -130.5z
M326 275v-58q0 -70 29 -103t98 -33q72 0 105 39.5t33 96.5v58q0 64 -29.5 100t-103.5 36q-73 0 -102.5 -36t-29.5 -100z" />
    <glyph glyph-name="A" unicode="A" horiz-adv-x="590" 
d="M419 529l150 -529h-56l-62 219h-312l-62 -219h-56l150 529q22 77 46.5 103t77.5 26t77.5 -26t46.5 -103zM230 544l-77 -274h284l-77 274q-11 38 -25 51.5t-40 13.5t-40 -13.5t-25 -51.5z" />
    <glyph glyph-name="B" unicode="B" horiz-adv-x="584" 
d="M183 650h113q117 0 165.5 -42.5t48.5 -126.5q0 -65 -26.5 -99.5t-93.5 -44.5v-4q79 -8 109.5 -46.5t30.5 -107.5q0 -88 -48.5 -133.5t-167.5 -45.5h-131q-55 0 -79.5 24.5t-24.5 79.5v442q0 55 24.5 79.5t79.5 24.5zM314 307h-180v-201q0 -28 13 -41t41 -13h121
q94 0 129.5 30t35.5 97t-34 97.5t-126 30.5zM296 598h-108q-28 0 -41 -13t-13 -41v-186h162q90 0 124 29t34 91t-34 91t-124 29z" />
    <glyph glyph-name="C" unicode="C" horiz-adv-x="520" 
d="M115 399v-160q0 -98 43.5 -147t142.5 -49q109 0 177 41v-54q-73 -39 -173 -39q-127 0 -186.5 60.5t-59.5 187.5v160q0 132 58.5 195.5t184.5 63.5q39 0 71.5 -6t49.5 -12t47 -19v-55q-83 40 -172 40q-97 0 -140 -50t-43 -157z" />
    <glyph glyph-name="D" unicode="D" horiz-adv-x="599" 
d="M79 104v442q0 55 24.5 79.5t79.5 24.5h84q151 0 212 -56t61 -201v-136q0 -141 -61.5 -199t-211.5 -58h-84q-55 0 -79.5 24.5t-24.5 79.5zM267 52q127 0 172 44t45 161v136q0 116 -45 160.5t-172 44.5h-79q-28 0 -41 -13t-13 -41v-438q0 -28 13 -41t41 -13h79z" />
    <glyph glyph-name="E" unicode="E" horiz-adv-x="525" 
d="M134 315v-209q0 -28 13 -41t41 -13h295v-52h-300q-55 0 -79.5 24.5t-24.5 79.5v442q0 55 24.5 79.5t79.5 24.5h300v-52h-295q-28 0 -41 -13t-13 -41v-177h309v-52h-309z" />
    <glyph glyph-name="F" unicode="F" horiz-adv-x="512" 
d="M134 313v-313h-55v546q0 55 24.5 79.5t79.5 24.5h296v-52h-291q-28 0 -41 -13t-13 -41v-179h305v-52h-305z" />
    <glyph glyph-name="G" unicode="G" horiz-adv-x="567" 
d="M459 117v235h53v-221q0 -62 -21 -93t-76 -40q-37 -7 -88 -7q-140 0 -204 60.5t-64 188.5v160q0 131 63.5 194.5t199.5 63.5q92 0 178 -37v-55q-83 40 -182 40q-108 0 -155.5 -50t-47.5 -158v-160q0 -99 48 -147t159 -48q48 0 85 7q29 6 40.5 22t11.5 45z" />
    <glyph glyph-name="H" unicode="H" horiz-adv-x="602" 
d="M134 316v-316h-55v650h55v-281h334v281h55v-650h-55v316h-334z" />
    <glyph glyph-name="I" unicode="I" horiz-adv-x="224" 
d="M84 0v650h56v-650h-56z" />
    <glyph glyph-name="J" unicode="J" horiz-adv-x="224" 
d="M140 650v-532q0 -122 -34.5 -193t-103.5 -116l-30 45q59 37 85.5 98.5t26.5 163.5v534h56z" />
    <glyph glyph-name="K" unicode="K" horiz-adv-x="527" 
d="M235 434l186 216h69l-216 -253q-35 -40 -35 -57q0 -15 35 -58l236 -282h-69l-206 245q-28 34 -39 53.5t-11 41.5t11 41.5t39 52.5zM79 0v650h55v-650h-55z" />
    <glyph glyph-name="L" unicode="L" horiz-adv-x="465" 
d="M79 104v546h55v-544q0 -28 13 -41t41 -13h255v-52h-260q-55 0 -79.5 24.5t-24.5 79.5z" />
    <glyph glyph-name="M" unicode="M" horiz-adv-x="775" 
d="M700 532l40 -532h-56l-39 547q-3 35 -17 47t-39 12q-22 0 -34.5 -12.5t-17.5 -46.5l-68 -464q-6 -43 -24 -63t-57 -20q-38 0 -56.5 20t-24.5 63l-69 464q-5 35 -17.5 47t-34.5 12q-24 0 -37.5 -12.5t-16.5 -46.5l-41 -547h-56l40 532q6 71 33 97.5t77 26.5q47 0 73 -26.5
t36 -97.5l64 -445q4 -25 10 -33t20 -8q12 0 18.5 8.5t10.5 32.5l64 445q10 71 36 97.5t73 26.5q50 0 77 -26.5t33 -97.5z" />
    <glyph glyph-name="N" unicode="N" horiz-adv-x="618" 
d="M79 0v563q0 94 83 94q37 0 56.5 -18.5t33.5 -61.5l164 -494q8 -26 17 -33.5t23 -7.5q28 0 28 41v567h55v-563q0 -50 -20 -72t-61 -22q-39 0 -58.5 19.5t-34.5 65.5l-163 488q-8 24 -16 33t-22 9q-31 0 -31 -43v-565h-54z" />
    <glyph glyph-name="O" unicode="O" horiz-adv-x="611" 
d="M497 251v148q0 109 -39 158t-152 49q-114 0 -153 -49t-39 -158v-148q0 -54 7.5 -90t28 -64t59 -41t97.5 -13q113 0 152 49.5t39 158.5zM306 -9q-139 0 -193 63.5t-54 196.5v148q0 132 54 195.5t193 63.5t192.5 -63.5t53.5 -195.5v-148q0 -132 -54 -196t-192 -64z" />
    <glyph glyph-name="P" unicode="P" horiz-adv-x="571" 
d="M183 650h141q119 0 167 -50t48 -152q0 -100 -48.5 -150.5t-166.5 -50.5h-190v-247h-55v546q0 55 24.5 79.5t79.5 24.5zM324 598h-136q-28 0 -41 -13t-13 -41v-245h190q93 0 126.5 34.5t33.5 114.5q0 79 -34 114.5t-126 35.5z" />
    <glyph glyph-name="Q" unicode="Q" horiz-adv-x="611" 
d="M552 251q0 -112 -37 -174t-129 -78l121 -121v-5h-67l-111 119q-17 0 -47 2q-126 5 -174.5 67.5t-48.5 189.5v148q0 132 54 195.5t193 63.5t192.5 -63.5t53.5 -195.5v-148zM497 251v148q0 109 -39 158t-152 49q-114 0 -153 -49t-39 -158v-148q0 -54 7.5 -90t28 -64t59 -41
t97.5 -13q113 0 152 49.5t39 158.5z" />
    <glyph glyph-name="R" unicode="R" horiz-adv-x="592" 
d="M539 462q0 -81 -33 -127t-117 -57l172 -278h-64l-168 275h-195v-275h-55v546q0 55 24.5 79.5t79.5 24.5h149q117 0 162 -46.5t45 -141.5zM332 598h-144q-28 0 -41 -13t-13 -41v-217h198q90 0 121 32t31 103q0 73 -31 104.5t-121 31.5z" />
    <glyph glyph-name="S" unicode="S" horiz-adv-x="513" 
d="M53 26v56q78 -37 192 -37q84 0 124 21.5t40 75.5q0 42 -23 66.5t-74 56.5l-156 99q-45 28 -71.5 63.5t-26.5 90.5q0 140 200 140q99 0 178 -34v-56q-73 37 -178 37q-77 0 -110 -21t-33 -68q0 -38 18.5 -61t57.5 -47l158 -101q37 -23 57.5 -39.5t39.5 -49.5t19 -75
q0 -152 -223 -152q-107 0 -189 35z" />
    <glyph glyph-name="T" unicode="T" horiz-adv-x="547" 
d="M30 598v52h487v-52h-216v-598h-55v598h-216z" />
    <glyph glyph-name="U" unicode="U" horiz-adv-x="613" 
d="M69 199v451h55v-451q0 -85 44.5 -120.5t138.5 -35.5q93 0 137.5 35.5t44.5 120.5v451h55v-451q0 -208 -237 -208q-238 0 -238 208z" />
    <glyph glyph-name="V" unicode="V" horiz-adv-x="571" 
d="M549 650l-139 -529q-20 -77 -45 -103t-80 -26q-54 0 -79.5 26t-45.5 103l-138 529h57l141 -544q10 -38 24.5 -51.5t40.5 -13.5q27 0 41.5 13.5t23.5 51.5l142 544h57z" />
    <glyph glyph-name="W" unicode="W" horiz-adv-x="892" 
d="M865 650l-92 -546q-10 -63 -35.5 -87.5t-74.5 -24.5q-47 0 -71 24.5t-35 87.5l-78 449q-5 31 -12 41t-21 10t-21 -10t-12 -41l-78 -449q-11 -63 -35 -87.5t-72 -24.5t-74 24.5t-36 87.5l-91 546h55l91 -547q6 -36 19.5 -49t35.5 -13q23 0 35.5 13t18.5 49l80 452
q9 52 27 73.5t57 21.5q38 0 56 -21.5t27 -73.5l80 -452q6 -36 19 -49t35 -13q23 0 36 13t19 49l92 547h55z" />
    <glyph glyph-name="X" unicode="X" horiz-adv-x="584" 
d="M468 650h61l-110 -215q-23 -45 -37.5 -64.5t-31.5 -26.5q18 -8 31 -26.5t38 -65.5l130 -252h-62l-129 256q-19 38 -30.5 50t-36.5 12q-24 0 -35.5 -11.5t-30.5 -50.5l-130 -256h-61l130 252q25 47 38 65.5t31 26.5q-18 7 -32 26t-37 65l-110 215h61l110 -220
q18 -36 30.5 -48.5t35.5 -12.5t36 12.5t31 48.5z" />
    <glyph glyph-name="Y" unicode="Y" horiz-adv-x="585" 
d="M265 0v275q-33 5 -52 26t-53 83l-145 266h62l141 -263q22 -40 35.5 -52.5t39.5 -12.5q25 0 39 13t35 52l141 263h62l-145 -266q-34 -62 -53 -83t-51 -26v-275h-56z" />
    <glyph glyph-name="Z" unicode="Z" horiz-adv-x="537" 
d="M54 598v52h326q56 0 86 -25.5t30 -71.5q0 -57 -62 -115l-305 -280q-41 -37 -41 -70q0 -36 48 -36h367v-52h-366q-54 0 -78 22.5t-24 56.5q0 22 3 36t18 37.5t44 50.5l306 282q36 34 36 63q0 50 -63 50h-325z" />
    <glyph glyph-name="bracketleft" unicode="[" horiz-adv-x="293" 
d="M259 -183v-43h-100q-41 0 -60 19t-19 61v792q0 42 19 61t60 19h100v-43h-93q-38 0 -38 -38v-790q0 -38 38 -38h93z" />
    <glyph glyph-name="backslash" unicode="\" horiz-adv-x="277" 
d="M-8 726h51l242 -756h-50z" />
    <glyph glyph-name="bracketright" unicode="]" horiz-adv-x="293" 
d="M34 -226v43h93q38 0 38 38v790q0 38 -38 38h-93v43h100q41 0 60 -19t19 -61v-792q0 -42 -19 -61t-60 -19h-100z" />
    <glyph glyph-name="asciicircum" unicode="^" horiz-adv-x="433" 
d="M273 633l120 -270h-51l-106 247q-8 19 -11 24t-10 5q-6 0 -9 -4.5t-12 -24.5l-104 -247h-50l118 270q12 29 24.5 39.5t32.5 10.5q21 0 33.5 -10.5t24.5 -39.5z" />
    <glyph glyph-name="underscore" unicode="_" horiz-adv-x="464" 
d="M465 -22v-43h-466v43h466z" />
    <glyph glyph-name="grave" unicode="`" horiz-adv-x="233" 
d="M133 750l-81 136h54l76 -136h-49z" />
    <glyph glyph-name="a" unicode="a" horiz-adv-x="477" 
d="M424 349v-201q0 -85 -49.5 -121t-156.5 -36q-75 0 -125.5 35t-50.5 111t50 109.5t154 33.5h125v69q0 56 -36 79t-105 23q-84 0 -142 -20v51q59 17 139 17q197 0 197 -150zM371 150v86h-123q-80 0 -116.5 -22t-36.5 -77q0 -98 123 -98q80 0 116.5 23t36.5 88z" />
    <glyph glyph-name="b" unicode="b" horiz-adv-x="546" 
d="M71 196v504h53v-281q38 80 164 80q110 0 158 -53t48 -153v-97q0 -100 -49.5 -152.5t-162.5 -52.5q-211 0 -211 205zM440 196v98q0 80 -34 117.5t-124 37.5t-124 -37.5t-34 -117.5v-98q0 -80 34 -117.5t124 -37.5t124 37.5t34 117.5z" />
    <glyph glyph-name="c" unicode="c" horiz-adv-x="429" 
d="M53 195v101q0 203 217 203q68 0 117 -26v-50q-54 26 -116 26q-93 0 -129 -39t-36 -115v-100q0 -85 39.5 -119.5t130.5 -34.5q68 0 122 25v-51q-57 -24 -126 -24q-112 0 -165.5 49t-53.5 155z" />
    <glyph glyph-name="d" unicode="d" horiz-adv-x="530" 
d="M476 700v-504q0 -205 -212 -205q-112 0 -161.5 52.5t-49.5 152.5v97q0 100 47.5 153t158.5 53q125 0 163 -80v281h54zM106 294v-98q0 -80 34 -117.5t124 -37.5t124 37.5t34 117.5v98q0 80 -34 117.5t-124 37.5t-124 -37.5t-34 -117.5z" />
    <glyph glyph-name="e" unicode="e" horiz-adv-x="501" 
d="M455 306q0 -48 -7 -82h-342v-35q0 -81 38.5 -114.5t126.5 -33.5q94 0 167 30v-50q-75 -30 -166 -30q-112 0 -165.5 48t-53.5 157v98q0 205 203 205q95 0 147 -48.5t52 -144.5zM106 311v-40h298v40q0 140 -149 140t-149 -140z" />
    <glyph glyph-name="f" unicode="f" horiz-adv-x="364" 
d="M14 440v41l82 9v87q0 140 157 140q60 0 108 -16v-50q-54 16 -107 16q-105 0 -105 -87v-90h200v-50h-200v-440h-53v440h-82z" />
    <glyph glyph-name="g" unicode="g" horiz-adv-x="497" 
d="M450 316q0 -170 -200 -170q-89 0 -116.5 -8t-27.5 -34q0 -24 28 -31.5t116 -7.5q118 0 164.5 -29t46.5 -102q0 -83 -47.5 -117.5t-163.5 -34.5q-119 0 -165.5 34.5t-46.5 106.5q0 76 59 112q-44 18 -44 64q0 30 21.5 49t60.5 23q-87 31 -87 145v14q0 81 53 125t149 44
q61 0 108 -22l77 62l29 -28l-64 -62q50 -39 50 -119v-14zM397 316v14q0 121 -147 121q-148 0 -148 -121v-14q0 -61 31.5 -91.5t116.5 -30.5q84 0 115.5 30.5t31.5 91.5zM250 17q-58 0 -105 5q-54 -27 -54 -95q0 -57 35 -77t124 -20q85 0 121.5 20.5t36.5 80.5q0 54 -35 70
t-123 16z" />
    <glyph glyph-name="h" unicode="h" horiz-adv-x="538" 
d="M73 0v700h53v-273q43 72 159 72q190 0 190 -175v-324h-53v319q0 67 -33 98.5t-113 31.5q-81 0 -115.5 -32.5t-34.5 -100.5v-316h-53z" />
    <glyph glyph-name="i" unicode="i" horiz-adv-x="207" 
d="M77 0v490h53v-490h-53zM66 646q0 16 11 26.5t27 10.5t26 -10.5t10 -26.5q0 -15 -10.5 -26t-25.5 -11q-16 0 -27 11t-11 26z" />
    <glyph glyph-name="j" unicode="j" horiz-adv-x="191" 
d="M58 646q0 16 11 26.5t27 10.5t26.5 -10.5t10.5 -26.5q0 -15 -10.5 -26t-26.5 -11t-27 11t-11 26zM122 490v-406q0 -67 -9.5 -116.5t-28.5 -82t-39.5 -52.5t-49.5 -39l-27 43q51 35 76 86.5t25 158.5v408h53z" />
    <glyph glyph-name="k" unicode="k" horiz-adv-x="452" 
d="M73 0v700h53v-700h-53zM200 338l155 152h68l-192 -190q-21 -20 -21 -41q0 -19 21 -41l212 -218h-68l-175 179q-41 41 -41 82q0 20 8 36t33 41z" />
    <glyph glyph-name="l" unicode="l" horiz-adv-x="222" 
d="M67 119v581h53v-575q0 -79 54 -79q22 0 35 6v-50q-17 -6 -39 -6q-46 0 -74.5 29t-28.5 94z" />
    <glyph glyph-name="m" unicode="m" horiz-adv-x="801" 
d="M116 318v-318h-53v318q0 181 182 181q125 0 155 -91q33 91 156 91q98 0 140 -47t42 -134v-318h-53v318q0 67 -28 99t-101 32t-101 -32t-28 -99v-318h-53v318q0 67 -28 99t-101 32q-72 0 -100.5 -32.5t-28.5 -98.5z" />
    <glyph glyph-name="n" unicode="n" 
d="M116 318v-318h-53v318q0 181 201 181q108 0 154.5 -47t46.5 -134v-318h-53v318q0 66 -32 98.5t-116 32.5t-116 -32.5t-32 -98.5z" />
    <glyph glyph-name="o" unicode="o" 
d="M422 196v98q0 80 -34 117.5t-124 37.5q-89 0 -123.5 -37.5t-34.5 -117.5v-98q0 -80 34.5 -117.5t123.5 -37.5q90 0 124 37.5t34 117.5zM264 -9q-114 0 -162.5 52.5t-48.5 152.5v98q0 99 49.5 152t161.5 53q114 0 163 -52.5t49 -152.5v-98q0 -99 -49.5 -152t-162.5 -53z
" />
    <glyph glyph-name="p" unicode="p" horiz-adv-x="546" 
d="M71 -200v495q0 99 50 151.5t161 52.5q113 0 162.5 -52t49.5 -152v-98q0 -100 -48 -153t-158 -53q-126 0 -164 80v-271h-53zM440 196v98q0 80 -34 117.5t-124 37.5t-124 -37.5t-34 -117.5v-98q0 -80 34 -117.5t124 -37.5t124 37.5t34 117.5z" />
    <glyph glyph-name="q" unicode="q" horiz-adv-x="546" 
d="M476 295v-495h-54v271q-38 -80 -163 -80q-111 0 -158.5 53t-47.5 153v98q0 100 49 152t162 52q212 0 212 -204zM106 294v-98q0 -80 34 -117.5t124 -37.5t124 37.5t34 117.5v98q0 80 -34 117.5t-124 37.5t-124 -37.5t-34 -117.5z" />
    <glyph glyph-name="r" unicode="r" horiz-adv-x="297" 
d="M116 328v-328h-53v330q0 169 157 169q30 0 62 -7v-52q-29 9 -62 9q-58 0 -81 -30t-23 -91z" />
    <glyph glyph-name="s" unicode="s" horiz-adv-x="453" 
d="M52 19v50q93 -28 175 -28q63 0 92 15.5t29 52.5q0 28 -15.5 46.5t-50.5 35.5l-134 65q-45 22 -66.5 49t-21.5 77q0 117 167 117q81 0 152 -30v-51q-68 31 -154 31q-59 0 -86 -15t-27 -51q0 -52 58 -80l136 -65q48 -23 71.5 -50t23.5 -77q0 -63 -44.5 -91.5t-135.5 -28.5
q-78 0 -169 28z" />
    <glyph glyph-name="t" unicode="t" horiz-adv-x="402" 
d="M14 440v41l82 9l12 130h41v-130h202v-50h-202v-276q0 -67 26.5 -94.5t76.5 -27.5q72 0 117 20v-50q-43 -21 -116 -21q-157 0 -157 173v276h-82z" />
    <glyph glyph-name="u" unicode="u" horiz-adv-x="511" 
d="M108 490v-318q0 -66 32 -98.5t116 -32.5t116 32.5t32 98.5v318h53v-318q0 -87 -46.5 -134t-154.5 -47q-201 0 -201 181v318h53z" />
    <glyph glyph-name="v" unicode="v" horiz-adv-x="505" 
d="M83 490l105 -391q9 -35 23 -47.5t41 -12.5t41.5 12t23.5 48l105 391h54l-102 -377q-20 -72 -44 -96t-78 -24t-78.5 24t-43.5 96l-101 377h54z" />
    <glyph glyph-name="w" unicode="w" horiz-adv-x="793" 
d="M88 490l66 -392q10 -60 54 -60q24 0 37 14t18 46l50 296q8 52 26.5 74t56.5 22t56.5 -21.5t27.5 -74.5l50 -296q10 -60 54 -60q45 0 55 60l66 392h54l-63 -379q-11 -66 -36 -93t-76 -27q-47 0 -72 27.5t-35 92.5l-43 273q-6 36 -14 48.5t-24 12.5q-15 0 -23 -12.5
t-14 -48.5l-43 -273q-10 -65 -35 -92.5t-73 -27.5q-50 0 -76 27t-36 93l-62 379h54z" />
    <glyph glyph-name="x" unicode="x" horiz-adv-x="509" 
d="M105 490l107 -174q12 -20 21 -26.5t22 -6.5t21.5 6.5t20.5 26.5l107 174h61l-106 -168q-34 -54 -54 -62q21 -10 54 -62l126 -198h-61l-125 200q-14 22 -23 29t-21 7q-23 0 -45 -36l-125 -200h-61l127 198q14 22 20.5 31t15 18t17.5 13q-20 8 -54 62l-106 168h61z" />
    <glyph glyph-name="y" unicode="y" horiz-adv-x="505" 
d="M83 490l113 -386q10 -36 24 -48t41 -12q26 0 40.5 12.5t23.5 47.5l97 386h54l-127 -490q-25 -99 -74.5 -154.5t-138.5 -51.5l-12 48q41 -3 70 8t49 38.5t30.5 52.5t25.5 71q-22 -14 -54 -14q-45 0 -66 25.5t-37 81.5l-113 385h54z" />
    <glyph glyph-name="z" unicode="z" horiz-adv-x="468" 
d="M65 441v49h260q53 0 76.5 -19t23.5 -63q0 -48 -55 -90l-252 -192q-27 -19 -27 -43q0 -34 51 -34h283v-49h-285q-98 0 -98 80q0 50 52 89l248 189q33 25 33 51q0 16 -11 24t-39 8h-260z" />
    <glyph glyph-name="braceleft" unicode="{" horiz-adv-x="336" 
d="M30 238v42h21q44 0 67 41.5t23 115.5v140q0 157 131 157h30v-43h-30q-84 0 -84 -111v-154q0 -135 -75 -167q75 -29 75 -167v-172q0 -111 84 -111h30v-43h-30q-131 0 -131 157v158q0 75 -23 116t-67 41h-21z" />
    <glyph glyph-name="bar" unicode="|" horiz-adv-x="211" 
d="M129 726v-952h-48v952h48z" />
    <glyph glyph-name="braceright" unicode="}" horiz-adv-x="336" 
d="M306 280v-42h-21q-44 0 -67 -41t-23 -116v-158q0 -157 -131 -157h-30v43h30q84 0 84 111v172q0 138 75 167q-75 32 -75 167v154q0 111 -84 111h-30v43h30q131 0 131 -157v-140q0 -74 23 -115.5t67 -41.5h21z" />
    <glyph glyph-name="asciitilde" unicode="~" horiz-adv-x="529" 
d="M43 205q0 69 30 106t83 37q34 0 65.5 -17t51.5 -38t46.5 -38t52.5 -17q71 0 71 101h42q0 -69 -29.5 -106t-82.5 -37q-34 0 -65.5 17t-51.5 37.5t-46.5 37.5t-52.5 17q-35 0 -53.5 -29t-18.5 -71h-42z" />
    <glyph glyph-name="exclamdown" unicode="&#xa1;" horiz-adv-x="244" 
d="M136 -160h-54v242q0 161 10 255h34q10 -85 10 -255v-242zM153 452q0 -18 -12.5 -30.5t-30.5 -12.5t-30.5 12.5t-12.5 30.5q0 19 12.5 31.5t30.5 12.5t30.5 -12.5t12.5 -31.5z" />
    <glyph glyph-name="cent" unicode="&#xa2;" horiz-adv-x="414" 
d="M236 -20v81q-93 5 -138 55t-45 151v91q0 197 183 207v81h44v-81q47 -3 91 -21v-51q-48 23 -109 23q-88 0 -122 -39.5t-34 -119.5v-90q0 -86 37 -121.5t119 -35.5q66 0 120 20v-51q-57 -16 -102 -19v-80h-44z" />
    <glyph glyph-name="sterling" unicode="&#xa3;" horiz-adv-x="481" 
d="M442 52v-52h-240q-55 0 -79.5 24.5t-24.5 79.5v200h-78v42h78v101q0 211 180 211q73 0 129 -22v-50q-62 20 -128 20q-69 0 -97 -40.5t-28 -129.5v-90h166v-42h-166v-198q0 -28 13 -41t41 -13h234z" />
    <glyph glyph-name="currency" unicode="&#xa4;" horiz-adv-x="618" 
d="M309 185q-38 0 -71 22l-142 -143l-36 35l142 140q-24 33 -24 74q0 39 23 73l-140 140l35 35l142 -143q31 22 71 22t72 -22l142 143l35 -35l-141 -140q23 -30 23 -73q0 -42 -23 -74l140 -140l-34 -34l-143 142q-33 -22 -71 -22zM309 225q37 0 63 25.5t26 62.5t-26 62.5
t-63 25.5t-62.5 -25.5t-25.5 -62.5t25.5 -62.5t62.5 -25.5z" />
    <glyph glyph-name="yen" unicode="&#xa5;" horiz-adv-x="582" 
d="M93 242v42h161q-33 6 -52.5 26.5t-48.5 79.5l-127 260h61l127 -265q19 -40 33.5 -52t43.5 -12t43.5 12.5t33.5 51.5l127 265h61l-127 -260q-29 -59 -48 -79.5t-52 -26.5h161v-42h-171v-98h171v-42h-171v-102h-55v102h-171v42h171v98h-171z" />
    <glyph glyph-name="brokenbar" unicode="&#xa6;" horiz-adv-x="208" 
d="M128 726v-379h-48v379h48zM128 174v-400h-48v400h48z" />
    <glyph glyph-name="section" unicode="&#xa7;" horiz-adv-x="532" 
d="M68 -168v55q76 -37 183 -37q81 0 120 20.5t39 67.5q0 34 -22.5 58t-77.5 60l-140 94q-46 30 -73.5 65.5t-27.5 91.5q0 102 90 119q-42 29 -66 60.5t-24 81.5q0 132 193 132q96 0 172 -35v-55q-68 36 -171 36q-74 0 -106 -19.5t-32 -61.5q0 -35 18.5 -55t61.5 -47l142 -88
q60 -37 89.5 -72t29.5 -88q0 -109 -108 -125q54 -38 81 -71t27 -81q0 -141 -218 -141q-103 0 -180 35zM125 308q0 -39 18.5 -62.5t60.5 -51.5l109 -74q50 4 74 25t24 67q0 35 -23.5 61.5t-76.5 59.5l-108 66q-42 -5 -60 -27t-18 -64z" />
    <glyph glyph-name="dieresis" unicode="&#xa8;" horiz-adv-x="319" 
d="M50 785q0 15 10 25.5t25 10.5t25 -10.5t10 -25.5t-10 -25t-25 -10t-25 10.5t-10 24.5zM198 785q0 15 10.5 25.5t25.5 10.5t25 -10.5t10 -25.5q0 -14 -10 -24.5t-25 -10.5t-25.5 10.5t-10.5 24.5z" />
    <glyph glyph-name="copyright" unicode="&#xa9;" horiz-adv-x="821" 
d="M258 301v98q0 73 41.5 112t124.5 39q57 0 102 -16v-42q-67 15 -101 15q-66 0 -93 -28.5t-27 -80.5v-97q0 -58 30.5 -81t101.5 -23q55 0 98 16v-44q-41 -15 -98 -15q-93 0 -136 34.5t-43 112.5zM61 352q0 145 102 247t247 102q146 0 247.5 -101.5t101.5 -247.5
q0 -145 -102 -246.5t-247 -101.5t-247 101.5t-102 246.5zM98 352q0 -129 92 -220.5t220 -91.5q129 0 220.5 91t91.5 221t-91.5 221.5t-220.5 91.5q-128 0 -220 -92t-92 -221z" />
    <glyph glyph-name="guillemotleft" unicode="&#xab;" horiz-adv-x="446" 
d="M233 52h-54l-115 138q-32 39 -32 60t32 60l115 138h54l-136 -165q-19 -23 -19 -33q0 -11 19 -33zM404 52h-53l-116 138q-32 39 -32 60t32 60l116 138h53l-136 -165q-19 -23 -19 -33t19 -33z" />
    <glyph glyph-name="logicalnot" unicode="&#xac;" horiz-adv-x="504" 
d="M458 354v-157h-49v153q0 20 -9 29t-29 9h-349v45h356q42 0 61 -18.5t19 -60.5z" />
    <glyph glyph-name="registered" unicode="&#xae;" horiz-adv-x="821" 
d="M61 352q0 145 102 247t247 102q146 0 247.5 -101.5t101.5 -247.5q0 -145 -102 -246.5t-247 -101.5t-247 101.5t-102 246.5zM98 352q0 -129 92 -220.5t220 -91.5q129 0 220.5 91t91.5 221t-91.5 221.5t-220.5 91.5q-128 0 -220 -92t-92 -221zM511 161l-98 165h-83v-165
h-46v290q0 49 22 70.5t70 21.5h49q66 0 95.5 -26.5t29.5 -80.5q0 -92 -90 -107l101 -168h-50zM424 502h-48q-46 0 -46 -46v-90h86q49 0 68.5 16t19.5 53q0 35 -18 51t-62 16z" />
    <glyph glyph-name="degree" unicode="&#xb0;" horiz-adv-x="373" 
d="M323 589q0 -57 -39 -96.5t-97 -39.5q-59 0 -98 39t-39 97t39.5 97.5t97.5 39.5t97 -39.5t39 -97.5zM283 589q0 42 -27 70t-68 28q-43 0 -70.5 -28t-27.5 -70q0 -41 28 -69t70 -28q38 0 66.5 28.5t28.5 68.5z" />
    <glyph glyph-name="plusminus" unicode="&#xb1;" horiz-adv-x="553" 
d="M494 99v-45h-436v45h194v191h-194v45h194v194h49v-194h193v-45h-193v-191h193z" />
    <glyph glyph-name="acute" unicode="&#xb4;" horiz-adv-x="235" 
d="M128 886h55l-82 -136h-49z" />
    <glyph glyph-name="mu" unicode="&#xb5;" horiz-adv-x="530" 
d="M73 -200v690h53v-322q0 -72 37.5 -99.5t110.5 -27.5q79 0 113.5 30t34.5 102v317h53v-317q0 -182 -194 -182q-112 0 -155 64v-255h-53z" />
    <glyph glyph-name="paragraph" unicode="&#xb6;" horiz-adv-x="517" 
d="M29 478q0 81 48 126.5t137 45.5h125q54 0 78.5 -24.5t24.5 -79.5v-628h-44v627q0 59 -59 59h-86v-360q0 -55 -3.5 -91.5t-15 -84t-39.5 -88t-73 -74.5l-24 38q37 28 60.5 63.5t33.5 78.5t13 76t3 82v58q-82 0 -130.5 50.5t-48.5 125.5z" />
    <glyph glyph-name="periodcentered" unicode="&#xb7;" horiz-adv-x="169" 
d="M41 313q0 18 12.5 30.5t30.5 12.5q19 0 31.5 -12.5t12.5 -30.5q0 -19 -12.5 -31t-31.5 -12q-18 0 -30.5 12t-12.5 31z" />
    <glyph glyph-name="cedilla" unicode="&#xb8;" horiz-adv-x="213" 
d="M75 25h36l-18 -69q94 13 94 -65q0 -41 -22.5 -59.5t-71.5 -18.5q-29 0 -57 9v36q24 -10 53 -10q31 0 43.5 9.5t12.5 33.5q0 21 -10.5 29t-38.5 8q-22 0 -48 -6z" />
    <glyph glyph-name="guillemotright" unicode="&#xbb;" horiz-adv-x="446" 
d="M267 52h-54l136 165q19 22 19 33q0 10 -19 33l-136 165h54l115 -138q32 -39 32 -60t-32 -60zM95 52h-53l136 165q19 23 19 33t-19 33l-136 165h53l116 -138q32 -39 32 -60t-32 -60z" />
    <glyph glyph-name="questiondown" unicode="&#xbf;" horiz-adv-x="393" 
d="M327 454q0 -18 -12.5 -30.5t-30.5 -12.5q-19 0 -31.5 12.5t-12.5 30.5q0 19 12.5 31.5t31.5 12.5q18 0 30.5 -12.5t12.5 -31.5zM46 14q0 39 9.5 68t31 52t37 35t47.5 32q44 28 65.5 56.5t22.5 71.5h47q17 -95 -109 -174q-24 -15 -35.5 -23.5t-28.5 -26t-24 -39.5t-7 -52
q0 -71 33.5 -99.5t105.5 -28.5q63 0 113 20v-56q-48 -16 -110 -16q-99 0 -148.5 42t-49.5 138z" />
    <glyph glyph-name="Agrave" unicode="&#xc0;" horiz-adv-x="590" 
d="M409 529l160 -529h-55l-67 219h-305l-66 -219h-55l160 529q24 80 45 104.5t69 24.5t69 -24.5t45 -104.5zM239 543l-82 -273h275l-81 273q-12 39 -23.5 52.5t-32.5 13.5t-32.5 -13.5t-23.5 -52.5zM273 695l-81 136h54l76 -136h-49z" />
    <glyph glyph-name="Aacute" unicode="&#xc1;" horiz-adv-x="590" 
d="M409 529l160 -529h-55l-67 219h-305l-66 -219h-55l160 529q24 80 45 104.5t69 24.5t69 -24.5t45 -104.5zM239 543l-82 -273h275l-81 273q-12 39 -23.5 52.5t-32.5 13.5t-32.5 -13.5t-23.5 -52.5zM389 831l-81 -136h-49l76 136h54z" />
    <glyph glyph-name="Acircumflex" unicode="&#xc2;" horiz-adv-x="590" 
d="M409 529l160 -529h-55l-67 219h-305l-66 -219h-55l160 529q24 80 45 104.5t69 24.5t69 -24.5t45 -104.5zM239 543l-82 -273h275l-81 273q-12 39 -23.5 52.5t-32.5 13.5t-32.5 -13.5t-23.5 -52.5zM181 698l47 77q18 30 31 41t35 11q21 0 34 -10.5t32 -41.5l49 -77h-48
l-40 68q-15 25 -27 25q-11 0 -26 -25l-39 -68h-48z" />
    <glyph glyph-name="Atilde" unicode="&#xc3;" horiz-adv-x="590" 
d="M409 529l160 -529h-55l-67 219h-305l-66 -219h-55l160 529q24 80 45 104.5t69 24.5t69 -24.5t45 -104.5zM239 543l-82 -273h275l-81 273q-12 39 -23.5 52.5t-32.5 13.5t-32.5 -13.5t-23.5 -52.5zM150 718q0 99 77 99q33 0 75.5 -34.5t61.5 -34.5q36 0 36 60h39
q0 -99 -78 -99q-32 0 -74.5 34.5t-61.5 34.5q-36 0 -36 -60h-39z" />
    <glyph glyph-name="Adieresis" unicode="&#xc4;" horiz-adv-x="590" 
d="M409 529l160 -529h-55l-67 219h-305l-66 -219h-55l160 529q24 80 45 104.5t69 24.5t69 -24.5t45 -104.5zM239 543l-82 -273h275l-81 273q-12 39 -23.5 52.5t-32.5 13.5t-32.5 -13.5t-23.5 -52.5zM186 763q0 15 10 25.5t25 10.5t25 -10.5t10 -25.5t-10 -25t-25 -10
t-25 10.5t-10 24.5zM334 763q0 15 10.5 25.5t25.5 10.5t25 -10.5t10 -25.5q0 -14 -10 -24.5t-25 -10.5t-25.5 10.5t-10.5 24.5z" />
    <glyph glyph-name="Aring" unicode="&#xc5;" horiz-adv-x="590" 
d="M409 529l160 -529h-55l-67 219h-305l-66 -219h-55l160 529q24 80 45 104.5t69 24.5t69 -24.5t45 -104.5zM239 543l-82 -273h275l-81 273q-12 39 -23.5 52.5t-32.5 13.5t-32.5 -13.5t-23.5 -52.5zM294 680q-37 0 -59.5 23t-22.5 60t22.5 60t59.5 23q39 0 62 -22.5
t23 -60.5q0 -37 -23 -60t-62 -23zM294 713q24 0 37.5 15t13.5 35q0 22 -13 36t-38 14q-23 0 -35.5 -14t-12.5 -36q0 -20 12.5 -35t35.5 -15z" />
    <glyph glyph-name="AE" unicode="&#xc6;" horiz-adv-x="842" 
d="M451 315v-209q0 -28 12.5 -41t41.5 -13h294v-52h-300q-55 0 -79.5 24.5t-24.5 79.5v115h-253l-66 -219h-55l158 521q23 77 46 103t73 26h501v-52h-294q-29 0 -41.5 -13t-12.5 -41v-177h308v-52h-308zM237 535l-80 -265h238v270q0 43 15 58h-114q-24 0 -36 -13t-23 -50z
" />
    <glyph glyph-name="Ccedilla" unicode="&#xc7;" horiz-adv-x="520" 
d="M115 399v-160q0 -98 43.5 -147t142.5 -49q109 0 177 41v-54q-68 -37 -160 -39l-9 -35q94 13 94 -65q0 -41 -22.5 -59.5t-71.5 -18.5q-29 0 -57 9v36q24 -10 53 -10q31 0 43.5 9.5t12.5 33.5q0 21 -10.5 29t-38.5 8q-22 0 -48 -6l18 70q-115 5 -169 65.5t-54 181.5v160
q0 132 58.5 195.5t184.5 63.5q39 0 71.5 -6t49.5 -12t47 -19v-55q-83 40 -172 40q-97 0 -140 -50t-43 -157z" />
    <glyph glyph-name="Egrave" unicode="&#xc8;" horiz-adv-x="525" 
d="M134 315v-209q0 -28 13 -41t41 -13h295v-52h-300q-55 0 -79.5 24.5t-24.5 79.5v442q0 55 24.5 79.5t79.5 24.5h300v-52h-295q-28 0 -41 -13t-13 -41v-177h309v-52h-309zM271 695l-81 136h54l76 -136h-49z" />
    <glyph glyph-name="Eacute" unicode="&#xc9;" horiz-adv-x="525" 
d="M134 315v-209q0 -28 13 -41t41 -13h295v-52h-300q-55 0 -79.5 24.5t-24.5 79.5v442q0 55 24.5 79.5t79.5 24.5h300v-52h-295q-28 0 -41 -13t-13 -41v-177h309v-52h-309zM366 831l-81 -136h-49l76 136h54z" />
    <glyph glyph-name="Ecircumflex" unicode="&#xca;" horiz-adv-x="525" 
d="M134 315v-209q0 -28 13 -41t41 -13h295v-52h-300q-55 0 -79.5 24.5t-24.5 79.5v442q0 55 24.5 79.5t79.5 24.5h300v-52h-295q-28 0 -41 -13t-13 -41v-177h309v-52h-309zM169 698l47 77q18 30 31 41t35 11q21 0 34 -10.5t32 -41.5l49 -77h-48l-40 68q-15 25 -27 25
q-11 0 -26 -25l-39 -68h-48z" />
    <glyph glyph-name="Edieresis" unicode="&#xcb;" horiz-adv-x="525" 
d="M134 315v-209q0 -28 13 -41t41 -13h295v-52h-300q-55 0 -79.5 24.5t-24.5 79.5v442q0 55 24.5 79.5t79.5 24.5h300v-52h-295q-28 0 -41 -13t-13 -41v-177h309v-52h-309zM173 763q0 15 10 25.5t25 10.5t25 -10.5t10 -25.5t-10 -25t-25 -10t-25 10.5t-10 24.5zM321 763
q0 15 10.5 25.5t25.5 10.5t25 -10.5t10 -25.5q0 -14 -10 -24.5t-25 -10.5t-25.5 10.5t-10.5 24.5z" />
    <glyph glyph-name="Igrave" unicode="&#xcc;" horiz-adv-x="224" 
d="M84 0v650h56v-650h-56zM88 695l-81 136h54l76 -136h-49z" />
    <glyph glyph-name="Iacute" unicode="&#xcd;" horiz-adv-x="224" 
d="M84 0v650h56v-650h-56zM216 831l-81 -136h-49l76 136h54z" />
    <glyph glyph-name="Icircumflex" unicode="&#xce;" horiz-adv-x="224" 
d="M84 0v650h56v-650h-56zM-1 698l47 77q18 30 31 41t35 11q21 0 34 -10.5t32 -41.5l49 -77h-48l-40 68q-15 25 -27 25q-11 0 -26 -25l-39 -68h-48z" />
    <glyph glyph-name="Idieresis" unicode="&#xcf;" horiz-adv-x="224" 
d="M84 0v650h56v-650h-56zM2 763q0 15 10 25.5t25 10.5t25 -10.5t10 -25.5t-10 -25t-25 -10t-25 10.5t-10 24.5zM150 763q0 15 10.5 25.5t25.5 10.5t25 -10.5t10 -25.5q0 -14 -10 -24.5t-25 -10.5t-25.5 10.5t-10.5 24.5z" />
    <glyph glyph-name="Eth" unicode="&#xd0;" horiz-adv-x="588" 
d="M84 104v200h-69v42h69v200q0 55 24.5 79.5t79.5 24.5h84q151 0 212 -56t61 -201v-136q0 -141 -61.5 -199t-211.5 -58h-84q-55 0 -79.5 24.5t-24.5 79.5zM272 52q127 0 172 44t45 161v136q0 116 -45 160.5t-172 44.5h-78q-55 0 -55 -54v-198h108v-42h-108v-198
q0 -54 55 -54h78z" />
    <glyph glyph-name="Ntilde" unicode="&#xd1;" horiz-adv-x="618" 
d="M79 0v563q0 94 83 94q37 0 56.5 -18.5t33.5 -61.5l164 -494q8 -26 17 -33.5t23 -7.5q28 0 28 41v567h55v-563q0 -50 -20 -72t-61 -22q-39 0 -58.5 19.5t-34.5 65.5l-163 488q-8 24 -16 33t-22 9q-31 0 -31 -43v-565h-54zM164 718q0 99 77 99q33 0 75.5 -34.5t61.5 -34.5
q36 0 36 60h39q0 -99 -78 -99q-32 0 -74.5 34.5t-61.5 34.5q-36 0 -36 -60h-39z" />
    <glyph glyph-name="Ograve" unicode="&#xd2;" horiz-adv-x="611" 
d="M497 251v148q0 109 -39 158t-152 49q-114 0 -153 -49t-39 -158v-148q0 -54 7.5 -90t28 -64t59 -41t97.5 -13q113 0 152 49.5t39 158.5zM306 -9q-139 0 -193 63.5t-54 196.5v148q0 132 54 195.5t193 63.5t192.5 -63.5t53.5 -195.5v-148q0 -132 -54 -196t-192 -64zM298 695
l-81 136h54l76 -136h-49z" />
    <glyph glyph-name="Oacute" unicode="&#xd3;" horiz-adv-x="611" 
d="M497 251v148q0 109 -39 158t-152 49q-114 0 -153 -49t-39 -158v-148q0 -54 7.5 -90t28 -64t59 -41t97.5 -13q113 0 152 49.5t39 158.5zM306 -9q-139 0 -193 63.5t-54 196.5v148q0 132 54 195.5t193 63.5t192.5 -63.5t53.5 -195.5v-148q0 -132 -54 -196t-192 -64zM404 831
l-81 -136h-49l76 136h54z" />
    <glyph glyph-name="Ocircumflex" unicode="&#xd4;" horiz-adv-x="611" 
d="M497 251v148q0 109 -39 158t-152 49q-114 0 -153 -49t-39 -158v-148q0 -54 7.5 -90t28 -64t59 -41t97.5 -13q113 0 152 49.5t39 158.5zM306 -9q-139 0 -193 63.5t-54 196.5v148q0 132 54 195.5t193 63.5t192.5 -63.5t53.5 -195.5v-148q0 -132 -54 -196t-192 -64zM188 698
l47 77q18 30 31 41t35 11q21 0 34 -10.5t32 -41.5l49 -77h-48l-40 68q-15 25 -27 25q-11 0 -26 -25l-39 -68h-48z" />
    <glyph glyph-name="Otilde" unicode="&#xd5;" horiz-adv-x="611" 
d="M497 251v148q0 109 -39 158t-152 49q-114 0 -153 -49t-39 -158v-148q0 -54 7.5 -90t28 -64t59 -41t97.5 -13q113 0 152 49.5t39 158.5zM306 -9q-139 0 -193 63.5t-54 196.5v148q0 132 54 195.5t193 63.5t192.5 -63.5t53.5 -195.5v-148q0 -132 -54 -196t-192 -64zM157 718
q0 99 77 99q33 0 75.5 -34.5t61.5 -34.5q36 0 36 60h39q0 -99 -78 -99q-32 0 -74.5 34.5t-61.5 34.5q-36 0 -36 -60h-39z" />
    <glyph glyph-name="Odieresis" unicode="&#xd6;" horiz-adv-x="611" 
d="M497 251v148q0 109 -39 158t-152 49q-114 0 -153 -49t-39 -158v-148q0 -54 7.5 -90t28 -64t59 -41t97.5 -13q113 0 152 49.5t39 158.5zM306 -9q-139 0 -193 63.5t-54 196.5v148q0 132 54 195.5t193 63.5t192.5 -63.5t53.5 -195.5v-148q0 -132 -54 -196t-192 -64zM197 763
q0 15 10 25.5t25 10.5t25 -10.5t10 -25.5t-10 -25t-25 -10t-25 10.5t-10 24.5zM345 763q0 15 10.5 25.5t25.5 10.5t25 -10.5t10 -25.5q0 -14 -10 -24.5t-25 -10.5t-25.5 10.5t-10.5 24.5z" />
    <glyph glyph-name="multiply" unicode="&#xd7;" horiz-adv-x="518" 
d="M292 325l167 -167l-34 -33l-166 167l-167 -167l-33 33l166 167l-166 167l33 33l167 -167l166 167l34 -33z" />
    <glyph glyph-name="Oslash" unicode="&#xd8;" horiz-adv-x="611" 
d="M306 -9q-97 0 -150 31l-27 -47l-38 23l28 50q-60 57 -60 203v148q0 132 54 195.5t193 63.5q94 0 148 -31l28 47l38 -22l-29 -50q61 -60 61 -203v-148q0 -132 -54 -196t-192 -64zM497 251v148q0 111 -37 154l-280 -483q44 -27 126 -27q113 0 152 49.5t39 158.5zM114 251
q0 -110 36 -155l280 483q-42 27 -124 27q-114 0 -153 -49t-39 -158v-148z" />
    <glyph glyph-name="Ugrave" unicode="&#xd9;" horiz-adv-x="613" 
d="M69 199v451h55v-451q0 -85 44.5 -120.5t138.5 -35.5q93 0 137.5 35.5t44.5 120.5v451h55v-451q0 -208 -237 -208q-238 0 -238 208zM282 695l-81 136h54l76 -136h-49z" />
    <glyph glyph-name="Uacute" unicode="&#xda;" horiz-adv-x="613" 
d="M69 199v451h55v-451q0 -85 44.5 -120.5t138.5 -35.5q93 0 137.5 35.5t44.5 120.5v451h55v-451q0 -208 -237 -208q-238 0 -238 208zM400 831l-81 -136h-49l76 136h54z" />
    <glyph glyph-name="Ucircumflex" unicode="&#xdb;" horiz-adv-x="613" 
d="M69 199v451h55v-451q0 -85 44.5 -120.5t138.5 -35.5q93 0 137.5 35.5t44.5 120.5v451h55v-451q0 -208 -237 -208q-238 0 -238 208zM188 698l47 77q18 30 31 41t35 11q21 0 34 -10.5t32 -41.5l49 -77h-48l-40 68q-15 25 -27 25q-11 0 -26 -25l-39 -68h-48z" />
    <glyph glyph-name="Udieresis" unicode="&#xdc;" horiz-adv-x="613" 
d="M69 199v451h55v-451q0 -85 44.5 -120.5t138.5 -35.5q93 0 137.5 35.5t44.5 120.5v451h55v-451q0 -208 -237 -208q-238 0 -238 208zM198 763q0 15 10 25.5t25 10.5t25 -10.5t10 -25.5t-10 -25t-25 -10t-25 10.5t-10 24.5zM346 763q0 15 10.5 25.5t25.5 10.5t25 -10.5
t10 -25.5q0 -14 -10 -24.5t-25 -10.5t-25.5 10.5t-10.5 24.5z" />
    <glyph glyph-name="Yacute" unicode="&#xdd;" horiz-adv-x="585" 
d="M265 0v275q-33 5 -52 26t-53 83l-145 266h62l141 -263q22 -40 35.5 -52.5t39.5 -12.5q25 0 39 13t35 52l141 263h62l-145 -266q-34 -62 -53 -83t-51 -26v-275h-56zM398 831l-81 -136h-49l76 136h54z" />
    <glyph glyph-name="Thorn" unicode="&#xde;" horiz-adv-x="555" 
d="M79 0v626h55v-118h171q120 0 169 -47.5t49 -145.5q0 -97 -49.5 -145.5t-168.5 -48.5h-171v-121h-55zM305 456h-171v-283h171q94 0 128.5 32.5t34.5 109.5q0 75 -35 108t-128 33z" />
    <glyph glyph-name="germandbls" unicode="&#xdf;" horiz-adv-x="509" 
d="M458 135q0 -144 -179 -144q-55 0 -86 12v58q32 -18 82 -18q69 0 98.5 21t29.5 66q0 34 -17.5 57t-42.5 35l-49.5 24t-42 33.5t-17.5 54.5q0 26 12.5 46.5t30 34l34.5 27t29.5 33t12.5 45.5q0 86 -111 86q-65 0 -95.5 -34.5t-30.5 -116.5v-455h-55v451q0 111 46 159
t136 48q86 0 125.5 -39.5t39.5 -102.5q0 -32 -12.5 -57t-30 -39.5t-35 -27t-30 -27t-12.5 -31.5q0 -20 17.5 -33.5t42.5 -24.5t50 -25t42.5 -43.5t17.5 -72.5z" />
    <glyph glyph-name="agrave" unicode="&#xe0;" horiz-adv-x="477" 
d="M424 349v-201q0 -85 -49.5 -121t-156.5 -36q-75 0 -125.5 35t-50.5 111t50 109.5t154 33.5h125v69q0 56 -36 79t-105 23q-84 0 -142 -20v51q59 17 139 17q197 0 197 -150zM371 150v86h-123q-80 0 -116.5 -22t-36.5 -77q0 -98 123 -98q80 0 116.5 23t36.5 88zM241 542
l-81 136h54l76 -136h-49z" />
    <glyph glyph-name="aacute" unicode="&#xe1;" horiz-adv-x="477" 
d="M424 349v-201q0 -85 -49.5 -121t-156.5 -36q-75 0 -125.5 35t-50.5 111t50 109.5t154 33.5h125v69q0 56 -36 79t-105 23q-84 0 -142 -20v51q59 17 139 17q197 0 197 -150zM371 150v86h-123q-80 0 -116.5 -22t-36.5 -77q0 -98 123 -98q80 0 116.5 23t36.5 88zM319 678
l-81 -136h-49l76 136h54z" />
    <glyph glyph-name="acircumflex" unicode="&#xe2;" horiz-adv-x="477" 
d="M424 349v-201q0 -85 -49.5 -121t-156.5 -36q-75 0 -125.5 35t-50.5 111t50 109.5t154 33.5h125v69q0 56 -36 79t-105 23q-84 0 -142 -20v51q59 17 139 17q197 0 197 -150zM371 150v86h-123q-80 0 -116.5 -22t-36.5 -77q0 -98 123 -98q80 0 116.5 23t36.5 88zM122 546
l47 77q18 30 31 41t35 11q21 0 34 -10.5t32 -41.5l49 -77h-48l-40 68q-15 25 -27 25q-11 0 -26 -25l-39 -68h-48z" />
    <glyph glyph-name="atilde" unicode="&#xe3;" horiz-adv-x="477" 
d="M424 349v-201q0 -85 -49.5 -121t-156.5 -36q-75 0 -125.5 35t-50.5 111t50 109.5t154 33.5h125v69q0 56 -36 79t-105 23q-84 0 -142 -20v51q59 17 139 17q197 0 197 -150zM371 150v86h-123q-80 0 -116.5 -22t-36.5 -77q0 -98 123 -98q80 0 116.5 23t36.5 88zM91 565
q0 99 77 99q33 0 75.5 -34.5t61.5 -34.5q36 0 36 60h39q0 -99 -78 -99q-32 0 -74.5 34.5t-61.5 34.5q-36 0 -36 -60h-39z" />
    <glyph glyph-name="adieresis" unicode="&#xe4;" horiz-adv-x="477" 
d="M424 349v-201q0 -85 -49.5 -121t-156.5 -36q-75 0 -125.5 35t-50.5 111t50 109.5t154 33.5h125v69q0 56 -36 79t-105 23q-84 0 -142 -20v51q59 17 139 17q197 0 197 -150zM371 150v86h-123q-80 0 -116.5 -22t-36.5 -77q0 -98 123 -98q80 0 116.5 23t36.5 88zM125 610
q0 15 10 25.5t25 10.5t25 -10.5t10 -25.5t-10 -25t-25 -10t-25 10.5t-10 24.5zM273 610q0 15 10.5 25.5t25.5 10.5t25 -10.5t10 -25.5q0 -14 -10 -24.5t-25 -10.5t-25.5 10.5t-10.5 24.5z" />
    <glyph glyph-name="aring" unicode="&#xe5;" horiz-adv-x="477" 
d="M424 349v-201q0 -85 -49.5 -121t-156.5 -36q-75 0 -125.5 35t-50.5 111t50 109.5t154 33.5h125v69q0 56 -36 79t-105 23q-84 0 -142 -20v51q59 17 139 17q197 0 197 -150zM371 150v86h-123q-80 0 -116.5 -22t-36.5 -77q0 -98 123 -98q80 0 116.5 23t36.5 88zM230 527
q-37 0 -59.5 23t-22.5 60t22.5 60t59.5 23q39 0 62 -22.5t23 -60.5q0 -37 -23 -60t-62 -23zM230 560q24 0 37.5 15t13.5 35q0 22 -13 36t-38 14q-23 0 -35.5 -14t-12.5 -36q0 -20 12.5 -35t35.5 -15z" />
    <glyph glyph-name="ae" unicode="&#xe6;" horiz-adv-x="819" 
d="M772 306q0 -48 -7 -82h-342v-35q0 -81 38.5 -114.5t126.5 -33.5q94 0 167 30v-50q-75 -30 -165 -30q-164 0 -188 104h-4q-11 -104 -180 -104q-75 0 -125.5 35t-50.5 111t50 109.5t154 33.5h125v69q0 56 -36 79t-105 23q-84 0 -142 -20v51q59 17 139 17q160 0 173 -102h4
q11 47 55 74.5t114 27.5q95 0 147 -48.5t52 -144.5zM371 150v86h-123q-80 0 -116.5 -22t-36.5 -77q0 -98 123 -98q80 0 116.5 23t36.5 88zM423 311v-40h298v40q0 140 -149 140t-149 -140z" />
    <glyph glyph-name="ccedilla" unicode="&#xe7;" horiz-adv-x="429" 
d="M53 195v101q0 203 217 203q68 0 117 -26v-50q-54 26 -116 26q-93 0 -129 -39t-36 -115v-100q0 -85 39.5 -119.5t130.5 -34.5q68 0 122 25v-51q-55 -22 -121 -24l-9 -35q94 13 94 -65q0 -41 -22.5 -59.5t-71.5 -18.5q-30 0 -57 9v36q24 -10 53 -10q31 0 43.5 9.5
t12.5 33.5q0 21 -10.5 29t-38.5 8q-22 0 -48 -6l18 70q-96 6 -142 55t-46 148z" />
    <glyph glyph-name="egrave" unicode="&#xe8;" horiz-adv-x="501" 
d="M455 306q0 -48 -7 -82h-342v-35q0 -81 38.5 -114.5t126.5 -33.5q94 0 167 30v-50q-75 -30 -166 -30q-112 0 -165.5 48t-53.5 157v98q0 205 203 205q95 0 147 -48.5t52 -144.5zM106 311v-40h298v40q0 140 -149 140t-149 -140zM252 542l-81 136h54l76 -136h-49z" />
    <glyph glyph-name="eacute" unicode="&#xe9;" horiz-adv-x="501" 
d="M455 306q0 -48 -7 -82h-342v-35q0 -81 38.5 -114.5t126.5 -33.5q94 0 167 30v-50q-75 -30 -166 -30q-112 0 -165.5 48t-53.5 157v98q0 205 203 205q95 0 147 -48.5t52 -144.5zM106 311v-40h298v40q0 140 -149 140t-149 -140zM333 678l-81 -136h-49l76 136h54z" />
    <glyph glyph-name="ecircumflex" unicode="&#xea;" horiz-adv-x="501" 
d="M455 306q0 -48 -7 -82h-342v-35q0 -81 38.5 -114.5t126.5 -33.5q94 0 167 30v-50q-75 -30 -166 -30q-112 0 -165.5 48t-53.5 157v98q0 205 203 205q95 0 147 -48.5t52 -144.5zM106 311v-40h298v40q0 140 -149 140t-149 -140zM137 546l47 77q18 30 31 41t35 11
q21 0 34 -10.5t32 -41.5l49 -77h-48l-40 68q-15 25 -27 25q-11 0 -26 -25l-39 -68h-48z" />
    <glyph glyph-name="edieresis" unicode="&#xeb;" horiz-adv-x="501" 
d="M455 306q0 -48 -7 -82h-342v-35q0 -81 38.5 -114.5t126.5 -33.5q94 0 167 30v-50q-75 -30 -166 -30q-112 0 -165.5 48t-53.5 157v98q0 205 203 205q95 0 147 -48.5t52 -144.5zM106 311v-40h298v40q0 140 -149 140t-149 -140zM147 610q0 15 10 25.5t25 10.5t25 -10.5
t10 -25.5t-10 -25t-25 -10t-25 10.5t-10 24.5zM295 610q0 15 10.5 25.5t25.5 10.5t25 -10.5t10 -25.5q0 -14 -10 -24.5t-25 -10.5t-25.5 10.5t-10.5 24.5z" />
    <glyph glyph-name="igrave" unicode="&#xec;" horiz-adv-x="207" 
d="M77 0v490h53v-490h-53zM87 542l-81 136h54l76 -136h-49z" />
    <glyph glyph-name="iacute" unicode="&#xed;" horiz-adv-x="207" 
d="M77 0v490h53v-490h-53zM202 678l-81 -136h-49l76 136h54z" />
    <glyph glyph-name="icircumflex" unicode="&#xee;" horiz-adv-x="207" 
d="M77 0v490h53v-490h-53zM-11 546l47 77q18 30 31 41t35 11q21 0 34 -10.5t32 -41.5l49 -77h-48l-40 68q-15 25 -27 25q-11 0 -26 -25l-39 -68h-48z" />
    <glyph glyph-name="idieresis" unicode="&#xef;" horiz-adv-x="207" 
d="M77 0v490h53v-490h-53zM-6 610q0 15 10 25.5t25 10.5t25 -10.5t10 -25.5t-10 -25t-25 -10t-25 10.5t-10 24.5zM142 610q0 15 10.5 25.5t25.5 10.5t25 -10.5t10 -25.5q0 -14 -10 -24.5t-25 -10.5t-25.5 10.5t-10.5 24.5z" />
    <glyph glyph-name="eth" unicode="&#xf0;" horiz-adv-x="513" 
d="M166 529l95 95q-52 28 -151 39l16 50q108 -14 174 -50l75 75l29 -27l-71 -70q69 -51 95.5 -125.5t26.5 -185.5q0 -96 -8.5 -155.5t-32 -103.5t-66 -62t-110.5 -18q-197 0 -197 205q0 197 207 197q76 0 150 -24q-3 86 -26 141.5t-77 92.5l-101 -102zM248 343
q-71 0 -111 -33t-40 -115q0 -79 34.5 -115.5t105.5 -36.5q102 0 131.5 56.5t29.5 218.5q-68 25 -150 25z" />
    <glyph glyph-name="ntilde" unicode="&#xf1;" 
d="M116 318v-318h-53v318q0 181 201 181q108 0 154.5 -47t46.5 -134v-318h-53v318q0 66 -32 98.5t-116 32.5t-116 -32.5t-32 -98.5zM120 565q0 99 77 99q33 0 75.5 -34.5t61.5 -34.5q36 0 36 60h39q0 -99 -78 -99q-32 0 -74.5 34.5t-61.5 34.5q-36 0 -36 -60h-39z" />
    <glyph glyph-name="ograve" unicode="&#xf2;" 
d="M422 196v98q0 80 -34 117.5t-124 37.5q-89 0 -123.5 -37.5t-34.5 -117.5v-98q0 -80 34.5 -117.5t123.5 -37.5q90 0 124 37.5t34 117.5zM264 -9q-114 0 -162.5 52.5t-48.5 152.5v98q0 99 49.5 152t161.5 53q114 0 163 -52.5t49 -152.5v-98q0 -99 -49.5 -152t-162.5 -53z
M255 542l-81 136h54l76 -136h-49z" />
    <glyph glyph-name="oacute" unicode="&#xf3;" 
d="M422 196v98q0 80 -34 117.5t-124 37.5q-89 0 -123.5 -37.5t-34.5 -117.5v-98q0 -80 34.5 -117.5t123.5 -37.5q90 0 124 37.5t34 117.5zM264 -9q-114 0 -162.5 52.5t-48.5 152.5v98q0 99 49.5 152t161.5 53q114 0 163 -52.5t49 -152.5v-98q0 -99 -49.5 -152t-162.5 -53z
M356 678l-81 -136h-49l76 136h54z" />
    <glyph glyph-name="ocircumflex" unicode="&#xf4;" 
d="M422 196v98q0 80 -34 117.5t-124 37.5q-89 0 -123.5 -37.5t-34.5 -117.5v-98q0 -80 34.5 -117.5t123.5 -37.5q90 0 124 37.5t34 117.5zM264 -9q-114 0 -162.5 52.5t-48.5 152.5v98q0 99 49.5 152t161.5 53q114 0 163 -52.5t49 -152.5v-98q0 -99 -49.5 -152t-162.5 -53z
M151 546l47 77q18 30 31 41t35 11q21 0 34 -10.5t32 -41.5l49 -77h-48l-40 68q-15 25 -27 25q-11 0 -26 -25l-39 -68h-48z" />
    <glyph glyph-name="otilde" unicode="&#xf5;" 
d="M422 196v98q0 80 -34 117.5t-124 37.5q-89 0 -123.5 -37.5t-34.5 -117.5v-98q0 -80 34.5 -117.5t123.5 -37.5q90 0 124 37.5t34 117.5zM264 -9q-114 0 -162.5 52.5t-48.5 152.5v98q0 99 49.5 152t161.5 53q114 0 163 -52.5t49 -152.5v-98q0 -99 -49.5 -152t-162.5 -53z
M120 565q0 99 77 99q33 0 75.5 -34.5t61.5 -34.5q36 0 36 60h39q0 -99 -78 -99q-32 0 -74.5 34.5t-61.5 34.5q-36 0 -36 -60h-39z" />
    <glyph glyph-name="odieresis" unicode="&#xf6;" 
d="M422 196v98q0 80 -34 117.5t-124 37.5q-89 0 -123.5 -37.5t-34.5 -117.5v-98q0 -80 34.5 -117.5t123.5 -37.5q90 0 124 37.5t34 117.5zM264 -9q-114 0 -162.5 52.5t-48.5 152.5v98q0 99 49.5 152t161.5 53q114 0 163 -52.5t49 -152.5v-98q0 -99 -49.5 -152t-162.5 -53z
M155 610q0 15 10 25.5t25 10.5t25 -10.5t10 -25.5t-10 -25t-25 -10t-25 10.5t-10 24.5zM303 610q0 15 10.5 25.5t25.5 10.5t25 -10.5t10 -25.5q0 -14 -10 -24.5t-25 -10.5t-25.5 10.5t-10.5 24.5z" />
    <glyph glyph-name="divide" unicode="&#xf7;" horiz-adv-x="553" 
d="M233 146q0 18 12.5 30.5t30.5 12.5q19 0 31 -12.5t12 -30.5t-12 -30.5t-31 -12.5q-18 0 -30.5 12.5t-12.5 30.5zM233 504q0 18 12.5 30.5t30.5 12.5q19 0 31 -12.5t12 -30.5t-12 -30.5t-31 -12.5q-18 0 -30.5 12.5t-12.5 30.5zM494 348v-46h-436v46h436z" />
    <glyph glyph-name="oslash" unicode="&#xf8;" 
d="M264 -9q-66 0 -112 19l-22 -38l-35 20l21 39q-63 48 -63 165v98q0 99 49.5 152t161.5 53q67 0 112 -20l23 40l35 -21l-23 -38q65 -50 65 -166v-98q0 -99 -49.5 -152t-162.5 -53zM422 196v98q0 87 -38 121l-209 -359q34 -15 89 -15q90 0 124 37.5t34 117.5zM106 196
q0 -86 39 -121l207 360q-33 14 -88 14q-89 0 -123.5 -37.5t-34.5 -117.5v-98z" />
    <glyph glyph-name="ugrave" unicode="&#xf9;" horiz-adv-x="511" 
d="M108 490v-318q0 -66 32 -98.5t116 -32.5t116 32.5t32 98.5v318h53v-318q0 -87 -46.5 -134t-154.5 -47q-201 0 -201 181v318h53zM252 542l-81 136h54l76 -136h-49z" />
    <glyph glyph-name="uacute" unicode="&#xfa;" horiz-adv-x="511" 
d="M108 490v-318q0 -66 32 -98.5t116 -32.5t116 32.5t32 98.5v318h53v-318q0 -87 -46.5 -134t-154.5 -47q-201 0 -201 181v318h53zM353 678l-81 -136h-49l76 136h54z" />
    <glyph glyph-name="ucircumflex" unicode="&#xfb;" horiz-adv-x="511" 
d="M108 490v-318q0 -66 32 -98.5t116 -32.5t116 32.5t32 98.5v318h53v-318q0 -87 -46.5 -134t-154.5 -47q-201 0 -201 181v318h53zM144 546l47 77q18 30 31 41t35 11q21 0 34 -10.5t32 -41.5l49 -77h-48l-40 68q-15 25 -27 25q-11 0 -26 -25l-39 -68h-48z" />
    <glyph glyph-name="udieresis" unicode="&#xfc;" horiz-adv-x="511" 
d="M108 490v-318q0 -66 32 -98.5t116 -32.5t116 32.5t32 98.5v318h53v-318q0 -87 -46.5 -134t-154.5 -47q-201 0 -201 181v318h53zM147 610q0 15 10 25.5t25 10.5t25 -10.5t10 -25.5t-10 -25t-25 -10t-25 10.5t-10 24.5zM295 610q0 15 10.5 25.5t25.5 10.5t25 -10.5
t10 -25.5q0 -14 -10 -24.5t-25 -10.5t-25.5 10.5t-10.5 24.5z" />
    <glyph glyph-name="yacute" unicode="&#xfd;" horiz-adv-x="505" 
d="M354 678l-81 -136h-49l76 136h54zM83 490l113 -386q10 -36 24 -48t41 -12q26 0 40.5 12.5t23.5 47.5l97 386h54l-127 -490q-25 -99 -74.5 -154.5t-138.5 -51.5l-12 48q41 -3 70 8t49 38.5t30.5 52.5t25.5 71q-22 -14 -54 -14q-45 0 -66 25.5t-37 81.5l-113 385h54z" />
    <glyph glyph-name="thorn" unicode="&#xfe;" horiz-adv-x="546" 
d="M494 293v-96q0 -100 -48 -153t-158 -53q-126 0 -164 80v-271h-53v876h53v-256q40 79 164 79q110 0 158 -53t48 -153zM440 196v98q0 80 -34 117.5t-124 37.5q-88 0 -123 -36.5t-35 -111.5v-105q0 -80 34 -117.5t124 -37.5t124 37.5t34 117.5z" />
    <glyph glyph-name="ydieresis" unicode="&#xff;" horiz-adv-x="505" 
d="M83 490l113 -386q10 -36 24 -48t41 -12q26 0 40.5 12.5t23.5 47.5l97 386h54l-127 -490q-25 -99 -74.5 -154.5t-138.5 -51.5l-12 48q41 -3 70 8t49 38.5t30.5 52.5t25.5 71q-22 -14 -54 -14q-45 0 -66 25.5t-37 81.5l-113 385h54zM143 610q0 15 10 25.5t25 10.5t25 -10.5
t10 -25.5t-10 -25t-25 -10t-25 10.5t-10 24.5zM291 610q0 15 10.5 25.5t25.5 10.5t25 -10.5t10 -25.5q0 -14 -10 -24.5t-25 -10.5t-25.5 10.5t-10.5 24.5z" />
    <glyph glyph-name="Aogonek" unicode="&#x104;" horiz-adv-x="590" 
d="M419 529l150 -529q-59 -36 -77.5 -56.5t-18.5 -48.5q0 -30 11.5 -40t34.5 -10q26 0 48 8v-38q-29 -9 -57 -9q-40 0 -60.5 19t-20.5 66q0 41 23 63.5t71 45.5h-10l-62 219h-312l-62 -219h-56l150 529q22 77 46.5 103t77.5 26t77.5 -26t46.5 -103zM230 544l-77 -274h284
l-77 274q-11 38 -25 51.5t-40 13.5t-40 -13.5t-25 -51.5z" />
    <glyph glyph-name="aogonek" unicode="&#x105;" horiz-adv-x="477" 
d="M424 349v-201q0 -99 -75 -136q-65 -33 -91.5 -59t-26.5 -58q0 -30 11.5 -40t35.5 -10q25 0 47 8v-38q-29 -9 -56 -9q-42 0 -62 19t-20 66q0 38 19.5 60t59.5 42q-30 -2 -48 -2q-75 0 -125.5 35t-50.5 111t50 109.5t154 33.5h125v69q0 56 -36 79t-105 23q-84 0 -142 -20
v51q59 17 139 17q197 0 197 -150zM371 150v86h-123q-80 0 -116.5 -22t-36.5 -77q0 -98 123 -98q80 0 116.5 23t36.5 88z" />
    <glyph glyph-name="Cacute" unicode="&#x106;" horiz-adv-x="520" 
d="M115 399v-160q0 -98 43.5 -147t142.5 -49q109 0 177 41v-54q-73 -39 -173 -39q-127 0 -186.5 60.5t-59.5 187.5v160q0 132 58.5 195.5t184.5 63.5q39 0 71.5 -6t49.5 -12t47 -19v-55q-83 40 -172 40q-97 0 -140 -50t-43 -157zM374 830l-81 -136h-49l76 136h54z" />
    <glyph glyph-name="cacute" unicode="&#x107;" horiz-adv-x="429" 
d="M53 195v101q0 203 217 203q68 0 117 -26v-50q-54 26 -116 26q-93 0 -129 -39t-36 -115v-100q0 -85 39.5 -119.5t130.5 -34.5q68 0 122 25v-51q-57 -24 -126 -24q-112 0 -165.5 49t-53.5 155zM336 678l-81 -136h-49l76 136h54z" />
    <glyph glyph-name="Eogonek" unicode="&#x118;" horiz-adv-x="525" 
d="M437 0h-254q-55 0 -79.5 24.5t-24.5 79.5v442q0 55 24.5 79.5t79.5 24.5h300v-52h-295q-28 0 -41 -13t-13 -41v-177h309v-52h-309v-209q0 -28 13 -41t41 -13h295v-52q-60 -37 -78 -57t-18 -48q0 -31 11 -40.5t35 -9.5t48 8v-38q-29 -9 -57 -9q-40 0 -60.5 19t-20.5 66
q0 41 23 63.5t71 45.5z" />
    <glyph glyph-name="eogonek" unicode="&#x119;" horiz-adv-x="501" 
d="M455 306q0 -48 -7 -82h-342v-35q0 -81 38.5 -114.5t126.5 -33.5q94 0 167 30v-50q-62 -39 -86 -65.5t-24 -60.5q0 -31 11 -40.5t35 -9.5t48 8v-38q-29 -9 -57 -9q-41 0 -61 19t-20 66q0 41 18 64t56 44q-45 -8 -86 -8q-112 0 -165.5 48t-53.5 157v98q0 205 203 205
q95 0 147 -48.5t52 -144.5zM106 311v-40h298v40q0 140 -149 140t-149 -140z" />
    <glyph glyph-name="dotlessi" unicode="&#x131;" horiz-adv-x="207" 
d="M77 0v490h53v-490h-53z" />
    <glyph glyph-name="Lslash" unicode="&#x141;" horiz-adv-x="468" 
d="M26 306l-15 40l72 26v278h55v-259l105 38l15 -39l-120 -44v-240q0 -28 13 -41t41 -13h255v-52h-261q-54 0 -78.5 24.5t-24.5 79.5v222z" />
    <glyph glyph-name="lslash" unicode="&#x142;" horiz-adv-x="231" 
d="M22 324l-15 39l67 24v313h53v-294l73 27l15 -39l-88 -32v-237q0 -79 54 -79q23 0 35 6v-50q-15 -6 -39 -6q-46 0 -74.5 29t-28.5 94v224z" />
    <glyph glyph-name="Nacute" unicode="&#x143;" horiz-adv-x="618" 
d="M79 0v563q0 94 83 94q37 0 56.5 -18.5t33.5 -61.5l164 -494q8 -26 17 -33.5t23 -7.5q28 0 28 41v567h55v-563q0 -50 -20 -72t-61 -22q-39 0 -58.5 19.5t-34.5 65.5l-163 488q-8 24 -16 33t-22 9q-31 0 -31 -43v-565h-54zM406 830l-81 -136h-49l76 136h54z" />
    <glyph glyph-name="nacute" unicode="&#x144;" 
d="M116 318v-318h-53v318q0 181 201 181q108 0 154.5 -47t46.5 -134v-318h-53v318q0 66 -32 98.5t-116 32.5t-116 -32.5t-32 -98.5zM340 678l-81 -136h-49l76 136h54z" />
    <glyph glyph-name="OE" unicode="&#x152;" horiz-adv-x="942" 
d="M306 -9q-139 0 -193 63.5t-54 196.5v148q0 132 54 195.5t193 63.5q164 0 198 -97q2 46 26.5 67.5t74.5 21.5h295v-52h-294q-28 0 -41 -13t-13 -41v-177h308v-52h-308v-209q0 -28 13 -41t41 -13h294v-52h-295q-50 0 -74 21t-27 68q-33 -98 -198 -98zM497 251v148
q0 109 -39 158t-152 49q-114 0 -153 -49t-39 -158v-148q0 -54 7.5 -90t28 -64t59 -41t97.5 -13q113 0 152 49.5t39 158.5z" />
    <glyph glyph-name="oe" unicode="&#x153;" horiz-adv-x="870" 
d="M264 -9q-114 0 -162.5 52.5t-48.5 152.5v98q0 99 49.5 152t161.5 53q157 0 185 -115q27 115 176 115q95 0 146.5 -48.5t51.5 -144.5q0 -48 -7 -82h-341v-35q0 -81 38.5 -114.5t126.5 -33.5q95 0 166 30v-50q-73 -30 -165 -30q-164 0 -192 115q-29 -115 -185 -115z
M422 196v98q0 80 -34 117.5t-124 37.5q-89 0 -123.5 -37.5t-34.5 -117.5v-98q0 -80 34.5 -117.5t123.5 -37.5q90 0 124 37.5t34 117.5zM475 311v-40h298v40q0 140 -149 140t-149 -140z" />
    <glyph glyph-name="Sacute" unicode="&#x15a;" horiz-adv-x="513" 
d="M53 26v56q78 -37 192 -37q84 0 124 21.5t40 75.5q0 42 -23 66.5t-74 56.5l-156 99q-45 28 -71.5 63.5t-26.5 90.5q0 140 200 140q99 0 178 -34v-56q-73 37 -178 37q-77 0 -110 -21t-33 -68q0 -38 18.5 -61t57.5 -47l158 -101q37 -23 57.5 -39.5t39.5 -49.5t19 -75
q0 -152 -223 -152q-107 0 -189 35zM339 830l-81 -136h-49l76 136h54z" />
    <glyph glyph-name="sacute" unicode="&#x15b;" horiz-adv-x="453" 
d="M52 19v50q93 -28 175 -28q63 0 92 15.5t29 52.5q0 28 -15.5 46.5t-50.5 35.5l-134 65q-45 22 -66.5 49t-21.5 77q0 117 167 117q81 0 152 -30v-51q-68 31 -154 31q-59 0 -86 -15t-27 -51q0 -52 58 -80l136 -65q48 -23 71.5 -50t23.5 -77q0 -63 -44.5 -91.5t-135.5 -28.5
q-78 0 -169 28zM313 678l-81 -136h-49l76 136h54z" />
    <glyph glyph-name="Scaron" unicode="&#x160;" horiz-adv-x="513" 
d="M53 26v56q78 -37 192 -37q84 0 124 21.5t40 75.5q0 42 -23 66.5t-74 56.5l-156 99q-45 28 -71.5 63.5t-26.5 90.5q0 140 200 140q99 0 178 -34v-56q-73 37 -178 37q-77 0 -110 -21t-33 -68q0 -38 18.5 -61t57.5 -47l158 -101q37 -23 57.5 -39.5t39.5 -49.5t19 -75
q0 -152 -223 -152q-107 0 -189 35zM192 751l-47 77h48l39 -68q15 -25 26 -25q12 0 27 25l40 68h48l-49 -77q-19 -31 -32 -41.5t-34 -10.5q-22 0 -35 11t-31 41z" />
    <glyph glyph-name="scaron" unicode="&#x161;" horiz-adv-x="453" 
d="M52 19v50q93 -28 175 -28q63 0 92 15.5t29 52.5q0 28 -15.5 46.5t-50.5 35.5l-134 65q-45 22 -66.5 49t-21.5 77q0 117 167 117q81 0 152 -30v-51q-68 31 -154 31q-59 0 -86 -15t-27 -51q0 -52 58 -80l136 -65q48 -23 71.5 -50t23.5 -77q0 -63 -44.5 -91.5t-135.5 -28.5
q-78 0 -169 28zM160 597l-47 77h48l39 -68q15 -25 26 -25q12 0 27 25l40 68h48l-49 -77q-19 -31 -32 -41.5t-34 -10.5q-22 0 -35 11t-31 41z" />
    <glyph glyph-name="Ydieresis" unicode="&#x178;" horiz-adv-x="585" 
d="M169 762q0 15 10.5 25.5t25.5 10.5t25 -10.5t10 -25.5q0 -14 -10 -24.5t-25 -10.5t-25.5 10.5t-10.5 24.5zM345 762q0 15 10.5 25.5t25.5 10.5t25 -10.5t10 -25.5q0 -14 -10 -24.5t-25 -10.5t-25.5 10.5t-10.5 24.5zM265 0v275q-33 5 -52 26t-53 83l-145 266h62l141 -263
q22 -40 35.5 -52.5t39.5 -12.5q25 0 39 13t35 52l141 263h62l-145 -266q-34 -62 -53 -83t-51 -26v-275h-56z" />
    <glyph glyph-name="Zacute" unicode="&#x179;" horiz-adv-x="537" 
d="M54 598v52h326q56 0 86 -25.5t30 -71.5q0 -57 -62 -115l-305 -280q-41 -37 -41 -70q0 -36 48 -36h367v-52h-366q-54 0 -78 22.5t-24 56.5q0 22 3 36t18 37.5t44 50.5l306 282q36 34 36 63q0 50 -63 50h-325zM338 830l-81 -136h-49l76 136h54z" />
    <glyph glyph-name="zacute" unicode="&#x17a;" horiz-adv-x="468" 
d="M333 678l-81 -136h-49l76 136h54zM65 441v49h260q53 0 76.5 -19t23.5 -63q0 -48 -55 -90l-252 -192q-27 -19 -27 -43q0 -34 51 -34h283v-49h-285q-98 0 -98 80q0 50 52 89l248 189q33 25 33 51q0 16 -11 24t-39 8h-260z" />
    <glyph glyph-name="Zdotaccent" unicode="&#x17b;" horiz-adv-x="537" 
d="M218 762q0 17 12 29t30 12q17 0 29 -12t12 -29q0 -18 -12 -29.5t-29 -11.5q-18 0 -30 11.5t-12 29.5zM54 598v52h326q56 0 86 -25.5t30 -71.5q0 -57 -62 -115l-305 -280q-41 -37 -41 -70q0 -36 48 -36h367v-52h-366q-54 0 -78 22.5t-24 56.5q0 22 3 36t18 37.5t44 50.5
l306 282q36 34 36 63q0 50 -63 50h-325z" />
    <glyph glyph-name="zdotaccent" unicode="&#x17c;" horiz-adv-x="468" 
d="M197 609q0 18 11.5 30t29.5 12t29.5 -12t11.5 -30q0 -17 -11.5 -29t-29.5 -12t-29.5 12t-11.5 29zM65 441v49h260q53 0 76.5 -19t23.5 -63q0 -48 -55 -90l-252 -192q-27 -19 -27 -43q0 -34 51 -34h283v-49h-285q-98 0 -98 80q0 50 52 89l248 189q33 25 33 51q0 16 -11 24
t-39 8h-260z" />
    <glyph glyph-name="Zcaron" unicode="&#x17d;" horiz-adv-x="537" 
d="M54 598v52h326q56 0 86 -25.5t30 -71.5q0 -57 -62 -115l-305 -280q-41 -37 -41 -70q0 -36 48 -36h367v-52h-366q-54 0 -78 22.5t-24 56.5q0 22 3 36t18 37.5t44 50.5l306 282q36 34 36 63q0 50 -63 50h-325zM193 751l-47 77h48l39 -68q15 -25 26 -25q12 0 27 25l40 68h48
l-49 -77q-19 -31 -32 -41.5t-34 -10.5q-22 0 -35 11t-31 41z" />
    <glyph glyph-name="zcaron" unicode="&#x17e;" horiz-adv-x="470" 
d="M67 441v49h259q53 0 76.5 -19t23.5 -63q0 -48 -55 -90l-251 -192q-27 -19 -27 -43q0 -34 50 -34h283v-49h-285q-97 0 -97 80q0 50 52 89l248 189q33 25 33 51q0 16 -11 24t-39 8h-260zM174 597l-47 77h48l39 -68q15 -25 26 -25q12 0 27 25l40 68h48l-49 -77
q-19 -31 -32 -41.5t-34 -10.5q-22 0 -35 11t-31 41z" />
    <glyph glyph-name="florin" unicode="&#x192;" horiz-adv-x="404" 
d="M72 292v42h115l24 158q13 87 44.5 127t103.5 41q30 0 52 -8v-49q-17 6 -46 6q-46 0 -67 -22t-33 -97l-24 -156h146v-42h-153l-37 -233q-9 -55 -15.5 -87t-18.5 -64.5t-28.5 -48.5t-41.5 -26t-60 -10q-23 0 -39 6v49q15 -5 35 -5q56 0 76 39t38 150l37 230h-108z" />
    <glyph glyph-name="circumflex" unicode="&#x2c6;" horiz-adv-x="339" 
d="M56 750l47 77q18 30 31 41t35 11q21 0 34 -10.5t32 -41.5l49 -77h-48l-40 68q-15 25 -27 25q-11 0 -26 -25l-39 -68h-48z" />
    <glyph glyph-name="caron" unicode="&#x2c7;" horiz-adv-x="328" 
d="M97 801l-47 77h48l39 -68q15 -25 26 -25q12 0 27 25l40 68h48l-49 -77q-19 -31 -32 -41.5t-34 -10.5q-22 0 -35 11t-31 41z" />
    <glyph glyph-name="breve" unicode="&#x2d8;" horiz-adv-x="400" 
d="M200 750q-120 0 -120 94v20h41v-20q0 -30 18.5 -43t60.5 -13t60.5 13.5t18.5 43.5v19h41v-20q0 -94 -120 -94z" />
    <glyph glyph-name="dotaccent" unicode="&#x2d9;" horiz-adv-x="180" 
d="M49 791q0 18 12 30t29 12q18 0 29.5 -12t11.5 -30q0 -17 -11.5 -29t-29.5 -12q-17 0 -29 12t-12 29z" />
    <glyph glyph-name="ring" unicode="&#x2da;" horiz-adv-x="269" 
d="M133 750q-37 0 -59.5 23t-22.5 60t22.5 60t59.5 23q39 0 62 -22.5t23 -60.5q0 -37 -23 -60t-62 -23zM133 783q24 0 37.5 15t13.5 35q0 22 -13 36t-38 14q-23 0 -35.5 -14t-12.5 -36q0 -20 12.5 -35t35.5 -15z" />
    <glyph glyph-name="ogonek" unicode="&#x2db;" horiz-adv-x="237" 
d="M144 0h46q-60 -37 -78 -57t-18 -48q0 -31 11 -40.5t36 -9.5q23 0 47 8v-38q-29 -9 -56 -9q-42 0 -62 19t-20 66q0 41 22.5 63t71.5 46z" />
    <glyph glyph-name="tilde" unicode="&#x2dc;" horiz-adv-x="449" 
d="M80 775q0 99 77 99q33 0 75.5 -34.5t61.5 -34.5q36 0 36 60h39q0 -99 -78 -99q-32 0 -74.5 34.5t-61.5 34.5q-36 0 -36 -60h-39z" />
    <glyph glyph-name="hungarumlaut" unicode="&#x2dd;" horiz-adv-x="345" 
d="M51 750l76 136h54l-81 -136h-49zM165 750l75 136h54l-81 -136h-48z" />
    <glyph glyph-name="endash" unicode="&#x2013;" horiz-adv-x="403" 
d="M-8 290v45h419v-45h-419z" />
    <glyph glyph-name="emdash" unicode="&#x2014;" horiz-adv-x="822" 
d="M-8 290v45h838v-45h-838z" />
    <glyph glyph-name="quoteleft" unicode="&#x2018;" horiz-adv-x="182" 
d="M130 711l19 -5q-7 -70 -26 -148q-15 -63 -46 -63q-25 0 -25 30q0 29 27 87.5t51 98.5z" />
    <glyph glyph-name="quoteright" unicode="&#x2019;" horiz-adv-x="182" 
d="M52 495l-19 5q7 70 26 148q15 63 46 63q25 0 25 -30q0 -29 -27 -87.5t-51 -98.5z" />
    <glyph glyph-name="quotesinglbase" unicode="&#x201a;" horiz-adv-x="182" 
d="M52 -137l-19 5q7 70 26 148q15 63 46 63q25 0 25 -30q0 -29 -27 -87.5t-51 -98.5z" />
    <glyph glyph-name="quotedblleft" unicode="&#x201c;" horiz-adv-x="333" 
d="M130 711l19 -5q-7 -70 -26 -148q-15 -63 -46 -63q-25 0 -25 30q0 29 27 87.5t51 98.5zM281 711l19 -5q-7 -70 -26 -148q-15 -63 -46 -63q-25 0 -25 30q0 29 27 87.5t51 98.5z" />
    <glyph glyph-name="quotedblright" unicode="&#x201d;" horiz-adv-x="333" 
d="M52 495l-19 5q7 70 26 148q15 63 46 63q25 0 25 -30q0 -29 -27 -87.5t-51 -98.5zM203 495l-19 5q7 70 26 148q15 63 46 63q25 0 25 -30q0 -29 -27 -87.5t-51 -98.5z" />
    <glyph glyph-name="quotedblbase" unicode="&#x201e;" horiz-adv-x="325" 
d="M52 -137l-19 5q7 70 26 148q15 63 46 63q25 0 25 -30q0 -29 -27 -87.5t-51 -98.5zM195 -137l-19 5q7 70 26 148q15 63 46 63q25 0 25 -30q0 -29 -27 -87.5t-51 -98.5z" />
    <glyph glyph-name="dagger" unicode="&#x2020;" horiz-adv-x="438" 
d="M408 486v-42h-167v-516h-45v516h-166v42h166v140h45v-140h167z" />
    <glyph glyph-name="daggerdbl" unicode="&#x2021;" horiz-adv-x="462" 
d="M42 68v41h166v335h-166v42h166v140h45v-140h167v-42h-167v-335h167v-41h-167v-140h-45v140h-166z" />
    <glyph glyph-name="bullet" unicode="&#x2022;" horiz-adv-x="238" 
d="M201 310q0 -34 -23.5 -58t-58.5 -24q-36 0 -59 24t-23 58q0 35 23 58.5t59 23.5t59 -23.5t23 -58.5z" />
    <glyph glyph-name="ellipsis" unicode="&#x2026;" horiz-adv-x="616" 
d="M478 37q0 19 12.5 31.5t30.5 12.5t30.5 -12.5t12.5 -31.5q0 -18 -12.5 -30.5t-30.5 -12.5t-30.5 12.5t-12.5 30.5zM265 37q0 19 12.5 31.5t30.5 12.5t30.5 -12.5t12.5 -31.5q0 -18 -12.5 -30.5t-30.5 -12.5t-30.5 12.5t-12.5 30.5zM52 37q0 19 12.5 31.5t30.5 12.5
t30.5 -12.5t12.5 -31.5q0 -18 -12.5 -30.5t-30.5 -12.5t-30.5 12.5t-12.5 30.5z" />
    <glyph glyph-name="perthousand" unicode="&#x2030;" horiz-adv-x="1074" 
d="M1023 152q0 -159 -144 -159t-144 159t144 159t144 -159zM974 152q0 61 -22.5 87.5t-72.5 26.5q-51 0 -73 -26.5t-22 -87.5t22 -87t73 -26q50 0 72.5 26.5t22.5 86.5zM510 650h57l-338 -650h-57zM340 498q0 -159 -144 -159t-144 159t144 159t144 -159zM291 498
q0 60 -22.5 86.5t-72.5 26.5q-51 0 -73 -26.5t-22 -86.5q0 -61 22 -87.5t73 -26.5q50 0 72.5 26.5t22.5 87.5zM686 152q0 -159 -144 -159t-144 159t144 159t144 -159zM637 152q0 61 -22 87.5t-73 26.5q-50 0 -72.5 -26.5t-22.5 -87.5q0 -60 22.5 -86.5t72.5 -26.5
q51 0 73 26t22 87z" />
    <glyph glyph-name="guilsinglleft" unicode="&#x2039;" horiz-adv-x="275" 
d="M233 52h-54l-115 138q-32 39 -32 60t32 60l115 138h54l-136 -165q-19 -23 -19 -33q0 -11 19 -33z" />
    <glyph glyph-name="guilsinglright" unicode="&#x203a;" horiz-adv-x="275" 
d="M95 52h-53l136 165q19 23 19 33t-19 33l-136 165h53l116 -138q32 -39 32 -60t-32 -60z" />
    <glyph glyph-name="fraction" unicode="&#x2044;" horiz-adv-x="288" 
d="M250 672h46l-258 -694h-46z" />
    <glyph glyph-name="Euro" unicode="&#x20ac;" horiz-adv-x="540" 
d="M20 378v42h76q5 130 64 184t168 54q91 0 154 -29l-11 -49q-70 26 -142 26q-83 0 -127 -40t-50 -146h279l-10 -42h-270v-107h244l-10 -41h-233q5 -102 46.5 -144.5t133.5 -42.5q100 0 162 39v-54q-66 -37 -154 -37q-116 0 -177.5 51.5t-66.5 187.5h-76v41h75v107h-75z" />
    <glyph glyph-name="trademark" unicode="&#x2122;" horiz-adv-x="819" 
d="M768 593v-350h-44v334l-102 -290q-5 -16 -12.5 -21.5t-22.5 -5.5t-22.5 5.5t-12.5 21.5l-102 290v-334h-44v350q0 33 28 33h8q18 0 27 -7t15 -24l103 -290l103 290q6 17 15 24t27 7h7q29 0 29 -33zM327 626v-40h-130v-343h-44v343h-130v40h304z" />
    <glyph glyph-name="minus" unicode="&#x2212;" horiz-adv-x="553" 
d="M494 335v-45h-436v45h436z" />
    <glyph glyph-name="fi" unicode="&#xfb01;" horiz-adv-x="571" 
d="M14 440v41l82 9v87q0 140 157 140q53 0 96 -16v-50q-48 16 -95 16q-105 0 -105 -87v-90h200v-50h-200v-440h-53v440h-82zM441 0v490h53v-490h-53zM430 646q0 16 10.5 26.5t26.5 10.5t26.5 -10.5t10.5 -26.5q0 -15 -10.5 -26t-26.5 -11t-26.5 11t-10.5 26z" />
    <glyph glyph-name="fl" unicode="&#xfb02;" horiz-adv-x="586" 
d="M14 440v41l82 9v87q0 140 157 140q53 0 96 -16v-50q-48 16 -95 16q-105 0 -105 -87v-90h200v-50h-200v-440h-53v440h-82zM431 119v581h53v-575q0 -79 54 -79q23 0 35 6v-50q-17 -6 -39 -6q-46 0 -74.5 29t-28.5 94z" />
    </font>
</defs>
</svg>
